<?xml version="1.0" standalone="no"?>
<!DOCTYPE svg PUBLIC "-//W3C//DTD SVG 1.1//EN" "http://www.w3.org/Graphics/SVG/1.1/DTD/svg11.dtd" >
<svg xmlns="http://www.w3.org/2000/svg" xmlns:xlink="http://www.w3.org/1999/xlink" version="1.1">
<metadata>
Created by FontForge 20170924 at Tue Aug 11 14:08:06 2015
 By www-data
Copyright (URW)++,Copyright 2014 by (URW)++ Design &#38; Development
</metadata>
<defs>
<font id="NimbusRomNo9L-RegIta" horiz-adv-x="500" >
  <font-face 
    font-family="Nimbus Roman No9 L"
    font-weight="400"
    font-style="italic"
    font-stretch="normal"
    units-per-em="1000"
    panose-1="0 0 5 0 0 0 0 0 0 0"
    ascent="693"
    descent="-307"
    x-height="434"
    cap-height="662"
    bbox="-165 -299 1085 951"
    underline-thickness="50"
    underline-position="-50"
    slope="-15.5"
    stemh="33"
    stemv="78"
    unicode-range="U+0020-FB04"
  />
<missing-glyph horiz-adv-x="250" 
 />
    <glyph glyph-name="ff" unicode="ff" horiz-adv-x="566" 
d="M439 450l1 3c3 14 12 46 23 77c34 101 101 160 180 160c53 0 90 -27 90 -64c0 -27 -21 -48 -49 -48c-25 0 -45 17 -45 38c0 7 1 10 3 18c3 6 4 11 4 14c0 7 -5 11 -15 11c-25 0 -43 -14 -60 -47c-14 -28 -19 -45 -40 -134l-5 -18l-2 -10h109l-9 -38h-109l-68 -292
c-20 -84 -54 -188 -73 -224c-37 -71 -77 -100 -135 -100c-46 0 -80 26 -80 61c0 26 20 46 47 46c24 0 40 -15 40 -35c0 -8 -2 -14 -6 -21c-2 -4 -4 -8 -4 -11s3 -4 10 -4c36 0 55 31 77 121l107 459h-197l-68 -292c-19 -81 -54 -189 -73 -224c-37 -70 -77 -100 -135 -100
c-46 0 -80 26 -80 61c0 26 21 46 48 46c23 0 40 -15 40 -35c0 -8 -2 -14 -7 -21c-2 -3 -4 -9 -4 -11c0 -3 3 -4 10 -4c36 0 56 32 77 121l107 459h-91l8 38h92l1 3c22 87 38 127 67 163c40 50 84 74 136 74c53 0 90 -27 90 -64c0 -27 -21 -48 -49 -48c-25 0 -45 17 -45 38
c0 7 1 10 3 18c3 6 4 11 4 14c0 7 -5 11 -15 11c-25 0 -42 -13 -60 -47c-14 -28 -19 -44 -40 -134l-5 -18l-2 -10h197z" />
    <glyph glyph-name="fi" unicode="fi" 
d="M57 450h96l7 28c33 142 106 212 223 212c65 0 106 -25 106 -65c0 -28 -20 -48 -48 -48c-24 0 -44 17 -44 37c0 2 1 7 3 12c2 4 3 8 3 10c0 14 -12 23 -31 23c-38 0 -71 -21 -90 -59c-15 -30 -16 -31 -37 -121l-7 -29h114c79 2 91 3 121 6l15 1c8 0 14 -7 14 -16
s-6 -38 -17 -75l-75 -276c-2 -8 -4 -21 -4 -27c0 -8 3 -12 9 -12c15 0 40 28 67 76l26 -17c-38 -57 -44 -66 -61 -83c-23 -21 -50 -34 -76 -34c-32 0 -52 21 -52 55c0 12 2 28 7 44l72 263s1 5 1 9c0 3 1 9 3 17l1 15c0 13 -7 16 -40 16h-134l-68 -291
c-19 -82 -54 -190 -73 -225c-37 -70 -77 -100 -135 -100c-46 0 -80 26 -80 61c0 26 21 46 48 46c23 0 40 -15 40 -35c0 -8 -2 -14 -7 -21c-2 -3 -4 -9 -4 -11c0 -3 3 -4 10 -4c35 0 56 32 77 121l107 459h-96z" />
    <glyph glyph-name="fl" unicode="fl" 
d="M225 450h105l-9 -38h-105l-68 -291c-19 -82 -54 -190 -73 -225c-37 -70 -77 -100 -135 -100c-46 0 -80 26 -80 61c0 26 21 46 48 46c23 0 40 -15 40 -35c0 -8 -2 -14 -7 -21c-2 -3 -4 -8 -4 -11s3 -4 10 -4c35 0 56 32 77 121l107 459h-96l9 38h96l2 9
c38 158 113 231 236 231c19 0 36 -2 65 -8c26 -6 27 -6 36 -6c8 0 19 1 32 4c9 2 13 3 16 3c8 0 13 -7 13 -16s-2 -17 -12 -60l-4 -15l-137 -502c-3 -10 -5 -21 -5 -24c0 -11 3 -15 8 -15c17 0 41 26 70 76l25 -17c-32 -50 -44 -65 -61 -83c-22 -21 -50 -34 -76 -34
c-33 0 -52 21 -52 56c0 12 2 28 7 43l132 485c-12 9 -16 17 -16 30c0 7 2 15 7 23c3 5 4 9 4 12c0 10 -21 17 -54 17c-67 0 -113 -47 -134 -139z" />
    <glyph glyph-name="ffi" unicode="ffi" horiz-adv-x="778" 
d="M398 450l7 28c15 63 28 94 55 132c38 51 98 80 168 80c64 0 106 -25 106 -65c0 -28 -20 -48 -48 -48c-24 0 -44 17 -44 37c0 3 1 7 3 12c2 4 3 8 3 10c1 13 -12 23 -31 23c-38 0 -70 -21 -90 -59c-13 -25 -21 -51 -37 -121l-7 -29h107c81 2 91 3 122 6l14 1
c8 0 14 -7 14 -17c0 -6 0 -8 -4 -23c-4 -20 -7 -33 -12 -51l-75 -276c-3 -10 -5 -21 -5 -27c0 -8 3 -12 8 -12c17 0 42 28 69 76l26 -17c-41 -60 -45 -66 -62 -83c-22 -22 -50 -34 -75 -34c-33 0 -53 21 -53 55c0 13 2 23 8 44l71 263l2 9c4 24 4 24 4 31c0 14 -7 17 -40 17
h-128l-68 -291c-20 -86 -53 -189 -73 -225c-37 -71 -77 -100 -135 -100c-46 0 -80 26 -80 61c0 26 21 46 48 46c24 0 40 -14 40 -36c0 -7 -2 -14 -7 -20c-2 -3 -4 -8 -4 -11s3 -4 10 -4c36 0 56 31 77 121l107 459h-169l-68 -291c-19 -82 -54 -190 -73 -225
c-37 -70 -77 -100 -135 -100c-46 0 -80 26 -80 61c0 26 21 46 48 46c23 0 40 -15 40 -35c0 -8 -2 -14 -7 -21c-2 -3 -4 -9 -4 -11c0 -3 3 -4 10 -4c35 0 56 32 77 121l107 459h-91l8 38h92l1 3c22 87 38 127 67 163c40 50 84 74 136 74c53 0 90 -27 90 -64
c0 -27 -21 -48 -49 -48c-25 0 -45 17 -45 38c0 7 1 10 3 18c3 6 4 11 4 14c0 7 -5 11 -15 11c-25 0 -42 -13 -60 -47c-14 -28 -19 -44 -40 -134l-5 -18l-2 -10h169z" />
    <glyph glyph-name=".notdef" horiz-adv-x="250" 
 />
    <glyph glyph-name="space" unicode=" " horiz-adv-x="250" 
 />
    <glyph glyph-name="exclam" unicode="!" horiz-adv-x="333" 
d="M169 179l-17 5c40 195 47 232 69 374c13 85 33 118 70 118c27 0 41 -18 41 -54c0 -29 -10 -60 -38 -122c-45 -104 -66 -158 -125 -321zM123 95c30 0 56 -25 56 -54s-25 -52 -56 -52c-30 0 -52 23 -52 55c0 27 25 51 52 51z" />
    <glyph glyph-name="quotedbl" unicode="&#x22;" horiz-adv-x="420" 
d="M367 427h-22c8 98 16 182 22 206c5 23 30 42 55 42c17 0 32 -13 32 -29c0 -17 -29 -89 -87 -219zM185 427h-21c6 81 17 185 21 206c5 23 31 42 56 42c17 0 32 -13 32 -29c0 -18 -30 -91 -88 -219z" />
    <glyph glyph-name="numbersign" unicode="#" 
d="M482 271l-11 -55h-106l-78 -216h-63l79 216h-132l-78 -216h-63l79 216h-96l11 55h106l54 144h-98l11 55h106l79 215h62l-79 -215h132l79 215h62l-79 -215h97l-10 -55h-107l-53 -144h96zM377 415h-132l-53 -144h132z" />
    <glyph glyph-name="dollar" unicode="$" 
d="M509 621l-32 -116l-15 2c1 75 -21 111 -82 135l-63 -240c114 -92 138 -127 138 -204c0 -73 -37 -136 -100 -168c-40 -20 -75 -27 -148 -30l-24 -90h-35l25 92c-64 13 -114 35 -151 66l31 125l16 3c8 -106 34 -144 112 -163l78 301c-51 37 -71 54 -93 81
c-27 36 -39 66 -39 101c0 55 29 103 80 132c42 24 61 28 145 29l19 64h34l-18 -69c47 -11 91 -29 122 -51zM286 426l60 224c-41 0 -49 -1 -69 -8c-44 -16 -70 -53 -70 -99c0 -45 18 -72 79 -117zM290 310l-76 -284c109 8 164 56 164 143c0 53 -16 80 -82 136z" />
    <glyph glyph-name="percent" unicode="%" horiz-adv-x="833" 
d="M667 685l-385 -698h-48l385 698h48zM653 305c-22 0 -39 -10 -57 -34c-38 -47 -72 -151 -72 -216c0 -39 19 -64 50 -64c23 0 44 15 64 46c37 60 63 143 63 202c0 40 -19 66 -48 66zM648 325c67 0 116 -58 116 -137c0 -111 -90 -217 -185 -217c-68 0 -117 56 -117 135
c0 110 92 219 186 219zM311 658c-21 0 -40 -11 -60 -36c-37 -46 -69 -147 -69 -214c0 -41 19 -65 51 -65c22 0 42 14 61 44c40 61 66 143 66 205c0 40 -19 66 -49 66zM307 679c67 0 115 -57 115 -138c0 -111 -89 -216 -185 -216c-68 0 -118 57 -118 137c0 56 21 108 60 151
c40 44 84 66 128 66z" />
    <glyph glyph-name="ampersand" unicode="&#x26;" horiz-adv-x="778" 
d="M523 355h188v-17c-30 -4 -40 -7 -55 -18c-11 -9 -23 -24 -41 -51c-28 -42 -42 -61 -100 -142c42 -69 77 -95 125 -95c24 0 40 7 71 30l11 -11c-43 -50 -80 -69 -130 -69c-54 0 -94 23 -140 80c-106 -68 -137 -80 -201 -80c-113 0 -186 63 -186 160c0 56 23 101 71 142
c36 30 81 54 185 99c-1 14 -3 27 -3 32c-4 30 -5 41 -5 54c0 121 66 206 160 206c60 0 105 -42 105 -96c0 -35 -18 -69 -53 -101c-27 -25 -57 -44 -120 -75c25 -104 58 -189 91 -241c63 77 79 106 79 140c0 23 -11 30 -52 34v19zM324 350c-99 -38 -164 -109 -164 -182
c0 -75 57 -133 131 -133c51 0 94 17 141 56c-34 44 -71 130 -108 259zM401 434c85 54 107 85 107 150c0 41 -14 59 -45 59c-47 0 -68 -39 -68 -128c0 -27 2 -49 6 -81z" />
    <glyph glyph-name="quotesingle" unicode="'" horiz-adv-x="214" 
d="M172 427h-21c6 80 17 185 21 206c5 23 31 42 55 42c17 0 32 -13 32 -29c0 -17 -30 -94 -87 -219z" />
    <glyph glyph-name="parenleft" unicode="(" horiz-adv-x="333" 
d="M195 -177l-18 -7c-37 67 -53 99 -67 142c-24 72 -37 151 -37 231c0 75 11 135 35 197c42 106 93 173 224 292l13 -15c-66 -70 -96 -116 -129 -196c-44 -110 -72 -253 -72 -373c0 -101 12 -167 51 -271z" />
    <glyph glyph-name="parenright" unicode=")" horiz-adv-x="333" 
d="M156 672l18 6c38 -66 53 -98 67 -141c24 -73 37 -151 37 -232c0 -74 -11 -134 -35 -196c-42 -106 -93 -173 -224 -293l-13 16c66 69 97 116 129 196c44 110 72 253 72 373c0 101 -12 166 -51 271z" />
    <glyph glyph-name="asterisk" unicode="*" 
d="M332 507v-27c42 28 49 34 85 73c35 37 35 37 52 37c22 0 38 -16 38 -38c0 -26 -15 -37 -57 -44c-48 -8 -65 -15 -108 -43l37 -19c16 -8 39 -15 67 -20c45 -7 62 -19 62 -43c0 -22 -16 -39 -38 -39c-15 0 -27 8 -46 32c-27 32 -51 53 -84 72l-7 4c1 -53 5 -77 20 -119
c7 -18 9 -25 9 -34c0 -24 -16 -40 -39 -40c-21 0 -36 16 -36 39c0 8 3 20 10 41c14 36 19 61 19 82c0 5 -1 13 -3 31c-3 -3 -6 -5 -15 -10c-31 -18 -43 -29 -72 -66c-18 -21 -34 -31 -51 -31c-20 0 -36 17 -36 37c0 24 17 36 59 44c47 8 65 15 109 41l-12 8
c-26 14 -58 25 -95 32c-47 8 -62 19 -62 47c0 20 15 35 35 35c16 0 28 -7 48 -31c33 -36 53 -52 93 -75c0 43 -5 68 -19 113c-7 20 -9 29 -9 39c0 25 13 40 35 40s37 -16 37 -40c0 -11 -3 -25 -11 -50c-12 -38 -15 -56 -15 -78z" />
    <glyph glyph-name="plus" unicode="+" horiz-adv-x="675" 
d="M336 337l-2 223h54l2 -223h222v-54h-222l2 -223h-53l-2 223h-223v54h222z" />
    <glyph glyph-name="comma" unicode="," horiz-adv-x="250" 
d="M21 -131l-9 17c53 37 75 63 75 90c0 10 -6 19 -21 33c-19 17 -25 28 -25 46c0 28 22 47 52 47c33 0 59 -32 59 -73c0 -57 -46 -113 -131 -160z" />
    <glyph glyph-name="hyphen" unicode="-" horiz-adv-x="333" 
d="M289 259l-13 -64h-223l14 64h222z" />
    <glyph glyph-name="period" unicode="." horiz-adv-x="250" 
d="M97 102c31 0 58 -27 58 -58s-26 -55 -58 -55c-30 0 -55 26 -55 56c0 31 25 57 55 57z" />
    <glyph glyph-name="slash" unicode="/" horiz-adv-x="278" 
d="M326 675h74l-377 -693h-74z" />
    <glyph glyph-name="zero" unicode="0" 
d="M357 685c100 0 161 -99 161 -261c0 -145 -76 -311 -176 -385c-43 -31 -85 -46 -129 -46c-99 0 -165 91 -165 229c0 236 152 463 309 463zM351 657c-46 0 -85 -31 -121 -96c-51 -93 -101 -290 -101 -400c0 -88 33 -140 89 -140c45 0 87 35 124 102c57 102 95 265 95 403
c0 83 -31 131 -86 131z" />
    <glyph glyph-name="one" unicode="1" 
d="M63 0v14c80 7 101 17 113 55l135 499c5 18 7 28 7 34c0 20 -16 34 -36 32h-3l-58 -2v15c12 2 20 3 22 4c30 6 60 12 91 18c55 11 83 16 83 16c3 0 5 -3 5 -7c0 -5 -1 -8 -6 -29l-140 -526c-2 -7 -5 -18 -6 -23c-9 -28 -12 -43 -12 -52c0 -23 21 -33 71 -33h17v-15h-283z
" />
    <glyph glyph-name="two" unicode="2" 
d="M417 141l18 -7l-50 -134h-360v17l211 227c66 72 112 136 135 189c6 14 9 32 9 54c0 71 -55 124 -128 124c-61 0 -105 -29 -141 -95l-22 7c29 73 55 107 107 135c31 17 69 27 105 27c93 0 166 -76 166 -173c0 -67 -32 -117 -149 -235l-193 -195v-5h193c57 2 77 15 99 64z
" />
    <glyph glyph-name="three" unicode="3" 
d="M188 575l-16 5c32 66 95 106 165 106c82 0 143 -56 143 -130c0 -69 -35 -102 -156 -149v-3c68 -32 98 -79 98 -154c0 -89 -49 -173 -129 -219c-42 -25 -94 -38 -151 -38c-73 0 -114 22 -114 60c0 25 16 39 44 39c20 0 35 -7 65 -28c31 -22 53 -32 73 -32
c41 0 87 29 110 69c13 24 21 59 21 95c0 81 -33 137 -96 159c-26 10 -37 11 -93 11l-1 16c91 16 135 31 177 60c43 30 64 65 64 108c0 56 -36 93 -91 93c-43 0 -77 -20 -113 -68z" />
    <glyph glyph-name="four" unicode="4" 
d="M470 244l-14 -66h-101l-45 -178h-80l48 180h-266l20 68l418 437h42l-119 -441h97zM291 244l95 326h-5l-305 -322v-4h215z" />
    <glyph glyph-name="five" unicode="5" 
d="M249 603l-39 -89c83 -20 119 -37 157 -72c46 -42 69 -97 69 -163c0 -158 -134 -286 -300 -286c-68 0 -108 22 -108 58c0 24 17 40 41 40c15 0 31 -7 56 -26c30 -21 48 -29 70 -29c91 0 171 98 171 208c0 54 -21 106 -55 132c-37 29 -70 42 -169 63v15l103 221h260
l-23 -72h-233z" />
    <glyph glyph-name="six" unicode="6" 
d="M533 696l1 -17c-119 -14 -255 -116 -324 -245l4 -2c29 13 61 21 90 21c101 0 174 -76 174 -181c0 -152 -113 -279 -249 -279c-114 0 -188 85 -188 217c0 144 76 287 203 381c86 64 154 89 289 105zM271 416c-48 0 -80 -20 -108 -66c-26 -45 -45 -127 -45 -195
c0 -85 37 -136 100 -136c43 0 79 22 110 66c36 53 60 132 60 201c0 79 -46 130 -117 130z" />
    <glyph glyph-name="seven" unicode="7" 
d="M564 665l-387 -673h-71l367 606l-2 3h-225c-60 -1 -88 -16 -135 -73l-14 9l81 138h380z" />
    <glyph glyph-name="eight" unicode="8" 
d="M325 387c89 -90 119 -145 119 -214c0 -103 -92 -180 -216 -180c-85 0 -146 30 -180 87c-15 26 -24 57 -24 85c0 89 69 159 196 200c-69 75 -90 114 -90 169c0 90 73 151 181 151c105 0 179 -60 179 -144c0 -72 -45 -114 -165 -154zM242 349c-95 -38 -149 -107 -149 -190
c0 -84 57 -144 138 -144c79 0 137 59 137 140c0 59 -12 78 -126 194zM307 405c87 41 114 73 114 136c0 72 -45 121 -110 121c-64 0 -102 -42 -102 -113c0 -44 17 -69 98 -144z" />
    <glyph glyph-name="nine" unicode="9" 
d="M48 -17v18c80 18 130 43 202 106c62 56 113 123 129 169l-4 2c-53 -34 -89 -46 -131 -46c-89 0 -153 77 -153 184c0 141 116 269 243 269c111 0 185 -89 185 -224c0 -137 -67 -270 -183 -361c-84 -67 -151 -94 -288 -117zM341 659c-34 0 -65 -13 -90 -39
c-42 -43 -71 -123 -71 -198c0 -91 38 -143 103 -143c39 0 80 17 106 44c30 29 54 120 54 201c0 85 -38 135 -102 135z" />
    <glyph glyph-name="colon" unicode=":" horiz-adv-x="333" 
d="M121 102c30 0 56 -27 56 -59c0 -30 -24 -54 -57 -54c-30 0 -55 25 -55 55c0 32 25 58 56 58zM218 448c32 0 58 -26 58 -58c0 -31 -25 -55 -58 -55c-30 0 -55 25 -55 55c0 33 24 58 55 58z" />
    <glyph glyph-name="semicolon" unicode=";" horiz-adv-x="333" 
d="M52 -131l-9 17c53 37 75 63 75 90c0 10 -6 19 -21 33c-19 17 -25 28 -25 46c0 28 22 47 52 47c33 0 59 -32 59 -73c0 -57 -46 -113 -131 -160zM219 448c31 0 57 -26 57 -58c0 -31 -25 -55 -58 -55c-30 0 -55 25 -55 56c0 32 24 57 56 57z" />
    <glyph glyph-name="less" unicode="&#x3c;" horiz-adv-x="675" 
d="M601 54l-496 223l-1 58l493 224v-58l-428 -195l432 -195v-57z" />
    <glyph glyph-name="equal" unicode="=" horiz-adv-x="675" 
d="M613 438v-54h-498v54h498zM615 236v-54h-498v54h498z" />
    <glyph glyph-name="greater" unicode="&#x3e;" horiz-adv-x="675" 
d="M128 54l-1 57l428 195l-431 195l-1 58l497 -224v-58z" />
    <glyph glyph-name="question" unicode="?" 
d="M231 176l-17 2c16 101 27 123 111 219c65 72 87 114 87 167c0 56 -30 87 -83 87c-43 0 -70 -18 -70 -48c0 -9 2 -15 8 -28c6 -12 8 -18 8 -26c0 -20 -17 -35 -40 -35c-25 0 -40 18 -40 49c0 65 58 110 141 110c91 0 151 -52 151 -132c0 -61 -20 -88 -134 -182
c-72 -58 -102 -97 -115 -153zM200 92c29 0 54 -24 54 -52s-24 -52 -53 -52c-30 0 -54 23 -54 52s23 52 53 52z" />
    <glyph glyph-name="at" unicode="@" horiz-adv-x="920" 
d="M609 402l10 47h76l-68 -317c-2 -8 -3 -16 -3 -25c0 -34 15 -54 41 -54c27 0 55 14 75 39c40 49 66 129 66 204c0 186 -144 340 -319 340c-82 0 -161 -35 -213 -95c-66 -75 -104 -188 -104 -306c0 -217 142 -371 341 -371c73 0 126 15 211 59l13 -36
c-102 -55 -158 -72 -235 -72c-228 0 -406 188 -406 427c0 243 174 433 395 433c202 0 361 -162 361 -368c0 -160 -91 -296 -199 -296c-52 0 -92 37 -99 91c-39 -57 -88 -90 -135 -90c-56 0 -99 62 -99 143c0 89 33 183 88 249c33 40 78 63 124 63c38 0 54 -13 79 -65z
M546 412c-27 3 -65 -23 -96 -64c-34 -45 -54 -110 -54 -177c0 -65 26 -106 66 -106c62 0 123 124 129 267c2 48 -14 77 -45 80z" />
    <glyph glyph-name="A" unicode="A" horiz-adv-x="611" 
d="M584 16v-16h-250v16c65 6 79 15 79 51c0 8 -1 19 -3 29l-21 133h-223l-57 -114c-18 -37 -20 -43 -20 -62c0 -27 8 -31 61 -37v-16h-190v16c41 8 51 20 129 154l290 508h26l101 -575c13 -74 20 -82 78 -87zM187 266h197l-48 264z" />
    <glyph glyph-name="B" unicode="B" horiz-adv-x="611" 
d="M4 0v16c57 10 64 16 81 75l121 449c7 25 11 50 11 64c0 29 -14 37 -79 42v16h261c133 0 205 -53 205 -150c0 -41 -15 -74 -43 -99c-32 -28 -62 -40 -133 -57c97 -42 129 -80 129 -156c0 -119 -108 -200 -267 -200h-286zM250 336c-14 -59 -20 -81 -31 -122
c-23 -80 -34 -128 -34 -141c0 -28 23 -43 66 -43c122 0 196 66 196 175c0 56 -26 101 -67 118c-21 8 -66 13 -130 13zM324 604l-64 -236c91 -1 140 7 175 27c43 24 66 68 66 125c0 77 -37 112 -119 112c-40 0 -52 -6 -58 -28z" />
    <glyph glyph-name="C" unicode="C" horiz-adv-x="667" 
d="M668 472l-18 3c-11 108 -63 163 -157 163c-67 0 -130 -28 -178 -77c-78 -81 -125 -202 -125 -321c0 -134 65 -212 179 -212c84 0 141 29 232 119l18 -14c-91 -107 -171 -151 -275 -151c-157 0 -268 111 -268 268c0 224 192 425 408 425c34 0 74 -6 119 -17
c21 -5 32 -7 41 -7c20 0 31 6 38 22h22z" />
    <glyph glyph-name="D" unicode="D" horiz-adv-x="722" 
d="M137 646v16h282c182 0 298 -107 298 -276c0 -117 -57 -227 -153 -298c-78 -57 -185 -88 -304 -88h-257v16c57 10 64 16 81 75l121 449c6 24 10 47 10 64c0 28 -15 36 -78 42zM323 603l-119 -439c-17 -63 -21 -83 -21 -96c0 -27 19 -38 66 -38c106 0 187 30 247 91
c67 69 108 180 108 290c0 81 -28 147 -79 184c-32 24 -83 37 -141 37c-40 0 -55 -7 -61 -29z" />
    <glyph glyph-name="E" unicode="E" horiz-adv-x="611" 
d="M649 662l-30 -155l-21 2c1 17 1 29 1 45c0 61 -35 75 -195 75c-58 0 -68 -4 -74 -26l-65 -237c36 1 68 2 81 2c91 4 101 10 138 97l19 -5l-67 -235l-20 5c5 23 6 33 6 51c0 21 -2 29 -11 36c-8 7 -32 11 -61 12l-46 1l-48 3c-13 -51 -26 -102 -31 -117
c-24 -88 -35 -136 -35 -149c0 -24 24 -34 80 -34c78 0 146 10 183 28c44 20 71 46 117 111l17 -8l-62 -164h-514v16c57 10 64 17 81 75l121 449c6 22 11 52 11 64c0 28 -15 36 -79 42v16h504z" />
    <glyph glyph-name="F" unicode="F" horiz-adv-x="611" 
d="M660 662l-31 -155l-21 2v9l1 11c1 9 1 18 1 25c0 58 -38 75 -165 75h-35c-49 1 -63 -5 -69 -27l-65 -236c170 2 174 4 218 94l19 -5l-75 -237l-17 5c6 32 7 43 7 60c0 20 -8 34 -23 41c-9 5 -16 6 -55 6c-21 0 -44 0 -83 3l-60 -227c-7 -23 -9 -35 -9 -44
c0 -31 18 -42 78 -46v-16h-256v16c58 8 64 14 82 75l121 448c6 25 10 48 10 66c0 12 -6 24 -14 29c-12 7 -17 8 -64 12v16h505z" />
    <glyph glyph-name="G" unicode="G" horiz-adv-x="722" 
d="M723 671l-48 -200l-18 3c-5 45 -12 67 -29 93c-31 46 -87 74 -153 74s-130 -27 -175 -75c-77 -83 -126 -212 -126 -334c0 -136 74 -212 207 -212c46 0 84 12 106 34c12 13 17 24 37 93c20 70 27 103 27 125s-13 28 -80 35v16h270v-16c-66 -5 -82 -16 -98 -73l-48 -189
c-78 -44 -150 -63 -239 -63c-88 0 -163 27 -215 79c-49 49 -79 121 -79 191c0 223 192 423 405 423c42 0 86 -8 136 -24c23 -8 34 -10 44 -10c27 0 43 9 61 34z" />
    <glyph glyph-name="H" unicode="H" horiz-adv-x="722" 
d="M783 662v-16c-58 -10 -65 -16 -83 -75l-129 -488c-2 -8 -3 -16 -3 -23c0 -30 13 -37 80 -44v-16h-277v16c66 7 86 22 102 75l63 239h-289l-64 -247c-2 -7 -3 -14 -3 -22c0 -30 11 -36 72 -45l1 -16h-250v16c56 10 64 17 81 75l121 448c8 30 11 47 11 62
c0 31 -15 39 -79 45v16h277v-16c-61 -5 -87 -24 -102 -75l-53 -198h289l45 166c8 27 11 47 11 63c0 29 -12 37 -72 44v16h251z" />
    <glyph glyph-name="I" unicode="I" horiz-adv-x="333" 
d="M6 0v16c57 10 64 17 81 75l121 448c8 30 11 47 11 62c0 30 -12 37 -72 45v16h250l1 -16c-59 -10 -66 -16 -83 -75l-120 -449c-10 -35 -11 -43 -11 -63c0 -29 10 -36 69 -43l1 -16h-248z" />
    <glyph glyph-name="J" unicode="J" horiz-adv-x="444" 
d="M497 662l1 -16c-58 -9 -65 -14 -83 -75l-101 -376c-21 -78 -40 -123 -67 -155c-32 -38 -76 -58 -129 -58c-71 0 -119 36 -119 90c0 32 18 54 45 54c31 0 51 -22 50 -58c-1 -43 7 -55 35 -55c25 0 39 15 49 55l129 471c9 34 12 50 12 65c0 28 -14 35 -79 42v16h257z" />
    <glyph glyph-name="K" unicode="K" horiz-adv-x="667" 
d="M738 662v-16c-24 -5 -48 -16 -76 -37l-302 -229l180 -307c28 -47 34 -51 99 -57v-16h-279v16c12 2 24 3 28 4c33 2 47 10 47 25c0 19 -15 56 -39 97l-124 211l-61 -231c-3 -9 -5 -16 -6 -22c-7 -21 -8 -28 -8 -38c0 -33 9 -39 73 -46l1 -16h-252v16c59 10 65 15 82 75
l121 448c8 30 11 47 11 63c0 30 -15 38 -79 44v16h277v-16c-60 -5 -87 -25 -102 -75l-52 -197l153 108c90 63 145 117 145 141c0 5 -3 11 -6 13c-7 4 -16 6 -28 7c-7 0 -16 1 -28 3v16h225z" />
    <glyph glyph-name="L" unicode="L" horiz-adv-x="556" 
d="M415 662v-16c-61 -5 -87 -24 -102 -75l-120 -450c-6 -20 -10 -42 -10 -50c0 -25 26 -35 89 -35c83 0 132 13 171 44c30 25 44 45 74 107l21 -6l-58 -181h-476v16c57 10 64 17 81 75l121 448c8 30 11 47 11 62c0 31 -15 39 -79 45v16h277z" />
    <glyph glyph-name="M" unicode="M" horiz-adv-x="833" 
d="M889 662l1 -16c-60 -10 -65 -14 -83 -75l-120 -449c-9 -33 -11 -44 -11 -61c0 -33 9 -38 79 -45v-16h-277v16c66 7 86 22 101 76l127 476l-377 -568h-17l-68 554l-115 -439c-5 -20 -9 -43 -9 -53c0 -29 20 -42 73 -46v-16h-201v16c53 7 68 27 98 132l104 377
c8 31 10 36 12 42c6 18 10 33 10 41c0 23 -24 35 -76 38v16h184l60 -500l336 500h169z" />
    <glyph glyph-name="N" unicode="N" horiz-adv-x="667" 
d="M742 662l1 -16c-64 -15 -68 -20 -104 -151l-142 -510h-18l-239 557l-111 -427c-6 -22 -9 -42 -9 -54c0 -29 19 -41 72 -45v-16h-201v16c58 8 66 20 103 150l117 423c-19 40 -40 53 -88 57v16h163l216 -506l100 385c0 3 1 5 2 9c6 22 8 32 8 43c0 38 -13 48 -71 53v16h201
z" />
    <glyph glyph-name="O" unicode="O" horiz-adv-x="722" 
d="M486 675c137 0 237 -110 230 -254c-11 -228 -213 -439 -422 -439c-131 0 -224 102 -224 246c0 118 58 239 159 332c80 74 171 115 257 115zM477 641c-74 0 -136 -39 -192 -120c-60 -88 -108 -236 -108 -332c0 -112 48 -174 133 -174c72 0 134 40 189 120
c64 94 110 239 110 349c0 97 -51 157 -132 157z" />
    <glyph glyph-name="P" unicode="P" horiz-adv-x="611" 
d="M154 646v16h251c140 0 216 -54 216 -153c0 -59 -29 -114 -79 -151c-43 -32 -111 -49 -195 -49c-42 0 -67 2 -92 8l-52 -195c-10 -39 -12 -46 -12 -57c0 -36 5 -40 69 -49l1 -16h-249v16c58 8 64 14 82 75l116 431c15 54 17 66 17 81c0 27 -14 36 -73 43zM333 603
l-70 -251c30 -5 35 -5 53 -5c63 0 102 8 133 26c45 26 67 71 67 136c0 49 -12 80 -38 99c-21 15 -59 24 -99 24c-28 0 -40 -8 -46 -29z" />
    <glyph glyph-name="Q" unicode="Q" horiz-adv-x="722" 
d="M294 -16l-54 -58l26 1c22 1 58 -6 112 -21c58 -16 94 -22 125 -22c74 0 115 19 171 77l15 -11c-26 -35 -39 -50 -63 -68c-52 -41 -122 -67 -178 -67c-39 0 -93 9 -155 27c-44 12 -73 18 -94 18c-40 0 -78 -10 -116 -31l-10 15c75 54 83 60 178 144c-45 10 -67 20 -94 41
c-56 43 -87 114 -87 199c0 118 58 238 159 332c80 74 171 115 253 115c136 0 234 -100 234 -239c0 -160 -100 -322 -249 -405c-56 -32 -95 -42 -173 -47zM477 641c-74 0 -136 -39 -192 -120c-59 -88 -108 -236 -108 -332c0 -110 48 -172 132 -172c73 0 135 39 191 120
c63 92 109 238 109 347c0 97 -51 157 -132 157z" />
    <glyph glyph-name="R" unicode="R" horiz-adv-x="611" 
d="M587 16v-16h-150l-128 329l-66 5l-54 -212c-10 -36 -12 -48 -12 -58c0 -35 6 -39 69 -48l1 -16h-248v16c57 9 64 15 81 75l121 449c7 27 12 52 12 63c0 12 -6 24 -14 29c-11 7 -16 8 -59 14v16h251c138 0 213 -52 213 -147c0 -45 -18 -84 -51 -113
c-36 -32 -69 -47 -147 -64l96 -249c20 -53 40 -70 85 -73zM319 604l-64 -233c24 -4 34 -5 52 -5c126 0 190 51 190 150c0 77 -42 116 -126 116c-33 0 -46 -7 -52 -28z" />
    <glyph glyph-name="S" unicode="S" 
d="M483 475l-19 3c-2 67 -11 101 -33 126c-22 24 -52 37 -90 37c-69 0 -111 -39 -111 -102c0 -50 9 -65 102 -157c93 -93 116 -133 116 -199c0 -115 -87 -201 -203 -201c-32 0 -59 6 -106 23c-27 9 -41 13 -52 13c-21 0 -32 -10 -39 -33h-18l32 226l21 -2
c-2 -8 -2 -14 -2 -21c0 -97 64 -170 150 -170c74 0 129 57 129 134c0 44 -13 70 -62 120c-2 3 -21 23 -39 43c-18 19 -38 40 -40 42c-63 66 -78 95 -78 151c0 98 74 167 179 167c32 0 63 -5 86 -14c24 -9 34 -11 46 -11c23 0 32 5 46 26h23z" />
    <glyph glyph-name="T" unicode="T" horiz-adv-x="556" 
d="M660 662l-44 -165l-17 2c2 17 3 32 3 45c0 57 -33 83 -106 83h-56l-136 -505c-10 -37 -12 -46 -12 -58c0 -39 4 -41 92 -48v-16h-294v16c67 5 91 22 106 75l141 536c-154 2 -187 -15 -240 -125l-18 4l41 156h540z" />
    <glyph glyph-name="U" unicode="U" horiz-adv-x="722" 
d="M781 662v-16c-63 -14 -67 -19 -104 -151l-82 -289c-43 -152 -126 -224 -259 -224c-129 0 -223 71 -223 168c0 42 12 106 41 214l52 195c5 17 7 32 7 45c0 30 -11 36 -79 42v16h276l1 -16c-69 -7 -85 -22 -106 -92c0 -2 -4 -15 -5 -19c-61 -212 -96 -353 -96 -391
c0 -71 58 -120 143 -120c71 0 126 32 165 95c21 34 37 74 54 140c5 20 9 37 13 49c46 170 72 274 72 291c0 13 -7 28 -18 34c-11 8 -22 10 -54 13v16h202z" />
    <glyph glyph-name="V" unicode="V" horiz-adv-x="611" 
d="M704 662v-16c-23 -1 -41 -14 -57 -41l-372 -623h-19l-91 527c-23 127 -25 130 -82 137v16h244l1 -16c-64 -8 -78 -17 -78 -51c0 -7 0 -11 1 -16l71 -449l206 361c32 57 51 101 51 120c0 20 -18 29 -64 35v16h189z" />
    <glyph glyph-name="W" unicode="W" horiz-adv-x="833" 
d="M923 662v-16c-39 -12 -48 -21 -75 -73l-302 -591h-20l-56 460h-5l-220 -460h-20l-67 524c-13 93 -18 113 -30 124c-9 9 -19 12 -52 16v16h239v-16c-61 -8 -73 -16 -73 -55c0 -3 0 -10 1 -15l48 -412l172 353l-10 70c-7 49 -18 57 -77 59v16h241l1 -16
c-54 -6 -66 -15 -68 -59v-15l45 -408l186 373c14 29 21 51 21 68c0 29 -11 35 -67 41v16h188z" />
    <glyph glyph-name="X" unicode="X" horiz-adv-x="611" 
d="M671 662v-16c-45 -15 -75 -38 -126 -96l-170 -197l106 -262c26 -60 36 -67 106 -75v-16h-276v16c66 5 76 10 76 40c0 15 -4 31 -11 49l-70 168l-151 -175c-14 -15 -21 -31 -21 -46c0 -26 17 -36 66 -36v-16h-217v16c27 6 45 15 69 35c18 14 48 46 96 103
c19 22 38 44 56 65c11 15 46 55 83 98l-110 267c-20 47 -35 57 -93 62l-1 16h268v-16c-55 -7 -71 -16 -71 -41c0 -14 5 -32 15 -57l62 -149l145 169c14 16 20 28 20 41c0 24 -12 31 -62 37v16h211z" />
    <glyph glyph-name="Y" unicode="Y" horiz-adv-x="556" 
d="M99 646v16h242l1 -16c-61 -6 -73 -12 -73 -36c0 -15 12 -62 38 -146c17 -58 20 -68 32 -112c15 18 21 25 39 46c103 121 150 188 150 216c0 9 -4 17 -10 20c-12 6 -12 6 -61 12v16h192v-16c-30 -14 -38 -22 -71 -62l-219 -274l-29 -102c-1 -5 -3 -12 -5 -20
c-25 -84 -31 -109 -31 -131c0 -13 5 -24 13 -28c10 -6 24 -9 41 -10c9 0 21 -1 37 -3v-16h-293v16c67 5 89 20 106 75l60 215l-81 273c-18 56 -21 59 -78 67z" />
    <glyph glyph-name="Z" unicode="Z" horiz-adv-x="556" 
d="M612 662v-14l-475 -611h141c158 1 200 24 252 137l19 -3l-53 -171h-490v14l480 612h-157c-133 -4 -169 -23 -211 -117l-19 5l45 148h468z" />
    <glyph glyph-name="bracketleft" unicode="[" horiz-adv-x="389" 
d="M406 645h-63c-31 -1 -41 -9 -49 -36l-186 -687c-5 -16 -5 -17 -5 -23c0 -18 16 -27 49 -27h57l-8 -27h-191l228 827h176z" />
    <glyph glyph-name="backslash" unicode="\" horiz-adv-x="278" 
d="M-33 675h73l299 -693h-72z" />
    <glyph glyph-name="bracketright" unicode="]" horiz-adv-x="389" 
d="M8 -128h63c30 1 41 8 49 36l186 687c4 16 4 17 4 23c0 18 -16 27 -48 27h-57l8 27h191l-229 -827h-175z" />
    <glyph glyph-name="asciicircum" unicode="^" horiz-adv-x="422" 
d="M94 308h-53l171 351h52l178 -351h-54l-150 297z" />
    <glyph glyph-name="underscore" unicode="_" 
d="M500 -125h-500v50h500v-50z" />
    <glyph glyph-name="grave" unicode="`" horiz-adv-x="333" 
d="M299 499l-143 107c-13 11 -19 20 -19 33c0 20 15 34 35 34c16 0 27 -7 40 -23l119 -151h-32z" />
    <glyph glyph-name="a" unicode="a" 
d="M478 112l12 -11c-77 -92 -101 -111 -142 -111c-28 0 -40 12 -40 41c0 26 2 34 25 117c-91 -125 -134 -159 -206 -159c-64 0 -102 41 -102 111c0 160 158 347 293 347c44 0 73 -21 81 -58l11 48l3 3l62 7l7 -3c-2 -9 -3 -11 -6 -21c-48 -168 -94 -348 -94 -368
c0 -7 6 -13 14 -13c10 0 23 10 53 41c7 7 14 13 29 29zM324 425c-42 3 -89 -30 -130 -88c-45 -65 -84 -168 -84 -224c0 -46 22 -74 59 -74c29 0 63 17 88 44c70 76 123 197 123 281c0 35 -22 59 -56 61z" />
    <glyph glyph-name="b" unicode="b" 
d="M118 652v17c67 8 104 14 156 24l5 -6c-47 -174 -55 -203 -109 -393c73 112 126 153 197 153c68 0 117 -50 117 -120c0 -159 -171 -338 -324 -338c-58 0 -135 31 -135 54v4l142 508l2 6c1 5 3 12 6 20c6 22 9 35 9 44c0 22 -6 25 -66 27zM328 397c-49 0 -95 -38 -140 -116
c-44 -76 -76 -175 -76 -235c0 -23 15 -34 46 -34c44 0 89 21 126 59c61 63 114 174 114 239c0 54 -26 87 -70 87z" />
    <glyph glyph-name="c" unicode="c" horiz-adv-x="444" 
d="M369 107l16 -10c-61 -77 -116 -108 -193 -108c-93 0 -147 55 -147 150c0 159 143 308 296 308c61 0 106 -35 106 -82c0 -27 -21 -47 -48 -47c-25 0 -40 14 -40 38c0 10 2 17 9 30c5 10 6 14 6 19c0 13 -14 21 -38 21c-40 0 -80 -18 -110 -49c-58 -60 -94 -152 -94 -238
c0 -72 34 -114 92 -114c49 0 89 23 145 82z" />
    <glyph glyph-name="d" unicode="d" 
d="M479 113l12 -11c-52 -73 -106 -115 -149 -115c-25 0 -42 18 -42 45c0 23 3 39 15 90c-71 -100 -116 -133 -184 -133c-67 0 -106 42 -106 114c0 152 167 344 299 344c40 0 57 -16 65 -59l46 167c16 56 16 57 16 70c0 22 -6 25 -63 27v17c64 6 101 12 156 24l5 -6
c-57 -215 -79 -294 -104 -376c-35 -114 -68 -234 -68 -250c0 -11 8 -20 18 -20c18 0 27 8 84 72zM328 424c-29 2 -67 -17 -95 -47c-68 -71 -120 -190 -120 -272c0 -41 23 -67 59 -67c28 0 59 15 85 42c68 72 116 189 116 287c0 36 -15 55 -45 57z" />
    <glyph glyph-name="e" unicode="e" horiz-adv-x="444" 
d="M371 111l13 -13c-61 -68 -139 -109 -211 -109c-79 0 -133 56 -133 137c0 153 161 321 308 321c50 0 80 -26 80 -68c0 -87 -108 -165 -261 -186l-28 -4c-9 -37 -11 -47 -11 -63c0 -55 37 -91 94 -91c44 0 76 16 149 76zM164 256l-18 -45c88 22 126 39 164 75
c32 30 51 67 51 100c0 23 -14 38 -35 38c-51 0 -127 -78 -162 -168z" />
    <glyph glyph-name="f" unicode="f" horiz-adv-x="278" 
d="M53 402l7 32h94c31 98 52 144 82 184c37 47 77 69 126 69c50 0 87 -28 87 -65c0 -22 -20 -41 -43 -41c-22 0 -37 16 -37 40c0 8 1 13 6 21c3 5 4 8 4 10c0 8 -8 13 -22 13c-56 0 -95 -71 -125 -231h109l-6 -32h-111l-75 -325c-44 -187 -115 -287 -206 -287
c-44 0 -79 27 -79 61c0 24 16 43 37 43c22 0 40 -17 40 -39c0 -6 -1 -10 -5 -17c-3 -5 -4 -7 -4 -10c0 -10 8 -17 20 -17c43 0 76 55 100 165l92 426h-91z" />
    <glyph glyph-name="g" unicode="g" 
d="M481 411l-1 -40h-50c5 -20 8 -39 8 -56c0 -79 -96 -162 -188 -162c-11 0 -23 1 -32 3c-3 1 -5 1 -7 1c-14 0 -37 -27 -37 -42s26 -31 70 -42c97 -26 145 -70 145 -133c0 -89 -86 -149 -213 -149c-104 0 -170 44 -170 114c0 48 19 69 120 134c-19 15 -27 26 -27 40
c0 24 18 44 78 85c-57 27 -79 56 -79 109c0 96 92 174 205 174c39 0 72 -10 100 -28c8 -6 13 -8 16 -8h62zM183 17l-29 9c-2 1 -4 2 -5 2c-8 0 -51 -33 -65 -51c-16 -19 -22 -37 -22 -62c0 -64 47 -102 128 -102c79 0 138 41 138 96c0 47 -36 73 -145 108zM302 425
c-67 0 -125 -82 -125 -176c0 -47 22 -75 60 -75c35 0 66 22 89 64c20 35 32 79 32 116c0 47 -19 71 -56 71z" />
    <glyph glyph-name="h" unicode="h" 
d="M479 119l13 -13c-62 -88 -97 -115 -148 -115c-28 0 -45 16 -45 42c0 12 7 44 21 94l58 209c4 17 7 29 7 34c1 13 -13 25 -28 25c-36 0 -106 -63 -159 -143c-41 -62 -54 -96 -96 -252h-76l141 519c6 22 10 36 10 38c10 29 15 54 15 68c0 15 -18 26 -41 25l-26 -1v16
c62 8 101 14 159 28l5 -6l-126 -453c97 147 169 213 235 213c39 0 66 -27 66 -67c0 -26 -20 -102 -51 -196c-17 -53 -34 -116 -34 -127c0 -10 7 -18 16 -18c17 0 29 12 84 80z" />
    <glyph glyph-name="i" unicode="i" horiz-adv-x="278" 
d="M238 116l13 -12c-58 -85 -96 -115 -143 -115c-30 0 -46 20 -46 57c0 20 6 50 24 111l50 179c5 20 9 35 9 45c1 20 -10 24 -64 25v16c40 3 63 7 163 25l3 -2l-92 -326c-2 -8 -5 -16 -7 -22c-6 -19 -10 -34 -10 -45c0 -8 8 -15 16 -15c9 0 24 10 42 28c10 10 16 17 42 51z
M235 663c27 0 50 -26 50 -56c0 -27 -23 -51 -51 -51c-29 0 -48 21 -48 52c0 32 20 55 49 55z" />
    <glyph glyph-name="j" unicode="j" horiz-adv-x="278" 
d="M248 445l-109 -417c-42 -162 -103 -238 -191 -238c-47 0 -80 26 -80 62c0 25 17 43 41 43c23 0 41 -16 41 -38c0 -8 -2 -13 -8 -21c-4 -5 -5 -8 -5 -11c0 -8 6 -12 18 -12c40 0 64 44 100 184l75 296c11 44 17 71 17 82c0 10 -3 19 -7 23c-5 5 -24 10 -33 9l-7 -1h-28v16
c32 2 89 10 173 25zM230 663c27 0 50 -26 50 -55c0 -28 -23 -52 -51 -52c-29 0 -48 21 -48 53c0 31 20 54 49 54z" />
    <glyph glyph-name="k" unicode="k" horiz-adv-x="444" 
d="M434 111l16 -12c-47 -84 -73 -110 -114 -110c-29 0 -49 21 -79 83c-19 39 -45 100 -60 143l-43 -32l-50 -183h-76l133 490c5 19 6 24 11 42c14 47 21 74 23 92c-1 17 -17 25 -51 25h-17v16c60 7 99 14 158 28l5 -6l-125 -463c14 11 29 23 44 34c95 72 146 122 146 142
c0 13 -12 17 -56 18v16h186v-16c-48 -3 -80 -25 -230 -156c17 -40 32 -77 37 -90c39 -97 59 -130 81 -130c19 0 25 7 61 69z" />
    <glyph glyph-name="l" unicode="l" horiz-adv-x="278" 
d="M246 125l14 -9c-67 -98 -102 -127 -155 -127c-32 0 -49 19 -49 56c0 7 1 16 4 27l144 535c3 9 4 15 4 19c0 14 -20 23 -52 23h-17v16c61 7 99 14 159 28l4 -6l-157 -587v-2c-1 -1 -2 -4 -3 -8c-5 -18 -8 -31 -8 -39c0 -13 5 -19 15 -19c22 0 32 9 97 93z" />
    <glyph glyph-name="m" unicode="m" horiz-adv-x="722" 
d="M706 119l16 -13l-6 -7c-52 -73 -100 -108 -147 -108c-26 0 -40 16 -40 46c0 10 3 24 14 67l61 233c5 19 7 31 7 36c0 12 -9 21 -20 21c-29 0 -80 -44 -131 -114s-73 -123 -114 -280h-77c14 50 17 62 27 93c39 134 73 262 73 276c0 16 -7 25 -20 25
c-35 0 -96 -57 -153 -143c-36 -53 -51 -92 -101 -251h-76c14 52 17 64 41 145c37 129 62 221 62 233c0 6 -4 13 -9 15c-10 6 -10 6 -56 7v16c80 14 101 19 162 31l3 -2l-61 -212c95 147 167 214 229 214c34 0 57 -24 57 -60c0 -20 -16 -77 -42 -155c71 111 113 161 163 192
c24 16 45 23 65 23c33 0 58 -27 58 -63c0 -7 -2 -25 -3 -29l-71 -255c-7 -25 -11 -41 -11 -45c0 -10 4 -16 13 -16c20 0 20 0 87 80z" />
    <glyph glyph-name="n" unicode="n" 
d="M479 119l14 -14c-71 -93 -97 -114 -143 -114c-33 0 -47 16 -47 55c0 10 2 19 17 75l46 168c9 33 15 65 15 77c0 18 -9 29 -24 29c-38 0 -90 -50 -151 -144c-46 -69 -55 -91 -104 -251h-76l100 355c2 6 2 9 2 17c0 20 -13 26 -64 28v16c89 16 110 20 164 31l3 -2l-69 -221
c105 162 170 223 235 223c39 0 66 -25 66 -61c0 -15 -4 -37 -10 -59l-59 -209c-15 -56 -15 -56 -15 -63c0 -9 7 -16 16 -16c17 0 28 11 84 80z" />
    <glyph glyph-name="o" unicode="o" 
d="M331 447c86 0 144 -57 144 -141c0 -76 -42 -163 -109 -229c-60 -58 -125 -88 -192 -88c-92 0 -148 53 -148 141c0 107 74 224 180 283c42 23 81 34 125 34zM319 426c-44 0 -87 -30 -127 -88c-50 -72 -81 -163 -81 -238c0 -54 32 -90 78 -90c44 0 83 25 120 79
c47 67 81 169 81 243c0 58 -28 94 -71 94z" />
    <glyph glyph-name="p" unicode="p" 
d="M66 409l-2 16l156 22c3 1 6 -2 6 -4s-1 -5 -2 -9l-30 -102c60 83 108 115 174 115c72 0 116 -47 116 -125c0 -162 -158 -333 -307 -333c-24 0 -41 4 -67 17c-24 -87 -39 -153 -39 -168c0 -22 17 -30 65 -31v-15h-208v16c44 2 57 13 68 60c15 61 36 138 61 227
c37 132 74 275 74 286c0 16 -20 31 -39 29h-3zM331 403c-51 3 -110 -46 -138 -116c-31 -76 -68 -208 -68 -242c0 -22 20 -37 48 -37c53 0 102 31 145 91c45 64 75 151 75 220c0 56 -19 82 -62 84z" />
    <glyph glyph-name="q" unicode="q" 
d="M393 -194v-18h-245v16c66 5 82 13 96 54l92 298c-91 -130 -137 -167 -210 -167c-63 0 -102 45 -102 116c0 154 165 342 300 342c41 0 61 -16 78 -62l15 47h74l-171 -585c-1 -5 -2 -9 -2 -12c0 -19 20 -29 58 -29h17zM327 425c-30 0 -63 -18 -95 -50
c-67 -68 -121 -181 -121 -255c0 -48 21 -77 56 -77c24 0 52 12 78 34c70 58 141 203 141 287c0 34 -27 61 -59 61z" />
    <glyph glyph-name="r" unicode="r" horiz-adv-x="389" 
d="M133 0h-77l85 296c8 30 16 71 16 84c0 18 -13 28 -35 28c-8 0 -12 -1 -34 -5v17c73 12 84 14 157 27l3 -2l-56 -220l15 37c16 39 58 100 100 142c26 28 54 43 77 43c28 0 47 -20 47 -52s-17 -50 -47 -50c-20 0 -28 5 -36 22c-5 10 -10 14 -17 14c-17 0 -45 -31 -80 -88
c-46 -77 -63 -118 -118 -293z" />
    <glyph glyph-name="s" unicode="s" horiz-adv-x="389" 
d="M28 148h16c15 -96 46 -138 102 -138c45 0 76 32 76 79c0 29 -17 65 -56 115c-42 55 -63 98 -63 131c0 67 49 112 122 112c19 0 33 -2 59 -10c18 -5 28 -7 36 -7c15 0 22 4 30 18h15l-22 -141h-16c-9 79 -39 117 -93 117c-35 0 -57 -21 -57 -55c0 -28 16 -59 54 -106
c47 -58 68 -102 68 -141c0 -77 -61 -133 -147 -133c-17 0 -32 3 -56 10c-20 5 -38 9 -50 9c-10 0 -16 -5 -24 -21h-16z" />
    <glyph glyph-name="t" unicode="t" horiz-adv-x="278" 
d="M311 434l-5 -32h-86l-91 -338c-2 -4 -2 -4 -2 -6c0 -12 6 -19 15 -19c16 0 34 17 83 80l13 -7c-64 -95 -98 -123 -145 -123c-27 0 -48 16 -48 38c0 4 8 36 24 96l75 279h-75v6c0 11 7 17 32 26c34 8 97 60 136 111c5 6 8 9 12 9h3h2c4 0 6 -4 6 -10c0 -1 0 -3 -1 -6
l-29 -104h81z" />
    <glyph glyph-name="u" unicode="u" 
d="M474 119l15 -9c-71 -100 -94 -119 -141 -119c-31 0 -49 17 -49 48c0 22 16 89 48 200c-119 -195 -172 -250 -244 -250c-36 0 -54 18 -54 55c0 18 7 51 27 125l38 144c10 35 15 60 15 68c0 7 -5 16 -10 19c-10 5 -10 5 -51 6v14c60 7 97 14 153 27l3 -2l-96 -368l-1 -9
c-1 -14 8 -25 21 -25c33 0 83 51 144 148c48 74 55 90 114 247h75l-82 -303c-21 -74 -21 -74 -21 -80c0 -10 4 -16 11 -16c17 0 31 13 85 80z" />
    <glyph glyph-name="v" unicode="v" horiz-adv-x="444" 
d="M38 409v13c35 5 97 17 112 21c8 3 16 4 21 4c9 0 9 0 28 -106c14 -75 18 -125 25 -270c97 95 172 211 172 267c0 10 -4 17 -18 30c-18 16 -24 27 -24 44c0 22 15 35 38 35c30 0 56 -27 56 -59c0 -60 -61 -169 -158 -282c-77 -89 -113 -124 -130 -124c-6 0 -9 7 -9 22
c0 1 0 1 1 14v10c0 31 -9 181 -14 223c-15 134 -26 159 -70 159c-8 0 -19 0 -30 -1z" />
    <glyph glyph-name="w" unicode="w" horiz-adv-x="667" 
d="M31 409v14c12 2 22 3 26 4c33 5 69 12 70 14c12 4 24 7 30 7c12 0 14 -7 24 -72c11 -71 22 -179 24 -248l198 308c5 8 7 10 12 10c6 0 8 -3 9 -14l29 -357c135 166 170 220 170 263c0 12 -6 23 -22 38c-16 14 -21 23 -21 36c0 22 15 35 39 35c31 0 53 -22 53 -53
c0 -64 -76 -189 -218 -357c-4 -6 -9 -11 -10 -12c-27 -33 -37 -43 -45 -43s-9 3 -11 30l-27 324l-92 -159c-31 -54 -51 -90 -56 -99c-37 -71 -54 -96 -65 -96c-10 0 -12 7 -14 47l-3 90c-3 80 -15 194 -25 244c-9 40 -15 47 -46 47h-9z" />
    <glyph glyph-name="x" unicode="x" horiz-adv-x="444" 
d="M409 113l14 -9c-60 -91 -86 -115 -124 -115c-33 0 -47 16 -59 68l-30 121c-41 -56 -66 -87 -92 -119c-51 -61 -63 -70 -95 -70c-31 0 -50 16 -50 42c0 21 15 36 35 36c8 0 19 -3 32 -10c11 -6 20 -9 26 -9c11 0 32 19 53 48l84 119l-29 125c-14 62 -20 70 -45 70
c-10 0 -10 0 -57 -11l-4 15c6 1 6 2 12 4c59 20 95 29 118 29c27 0 39 -20 52 -89l11 -56c72 109 110 145 154 145c25 0 42 -15 42 -37s-14 -37 -35 -37c-9 0 -16 2 -28 9c-10 5 -19 8 -25 8c-18 0 -56 -46 -100 -122c0 -18 12 -72 35 -165c1 -4 2 -8 2 -10l2 -6
c7 -29 16 -42 31 -42c12 0 24 10 47 40c9 12 14 18 23 28z" />
    <glyph glyph-name="y" unicode="y" horiz-adv-x="444" 
d="M24 406v17c15 2 28 5 32 5c55 10 92 17 100 18c5 0 8 0 9 1h4c15 0 71 -166 86 -256l19 -118c87 142 126 222 126 263c0 14 -7 23 -26 34c-21 13 -29 23 -29 39c0 23 16 38 40 38c31 0 56 -25 56 -56c0 -49 -29 -122 -99 -247c-113 -202 -245 -353 -311 -353
c-30 0 -51 18 -51 44c0 23 17 40 40 40c12 0 23 -5 38 -17c11 -8 17 -11 23 -11c14 0 26 8 47 31c11 11 32 36 64 79c15 20 22 35 22 51c0 41 -49 250 -78 331c-19 54 -38 71 -80 71c-11 0 -19 -1 -32 -4z" />
    <glyph glyph-name="z" unicode="z" horiz-adv-x="389" 
d="M85 313l-16 4l32 117h288v-11l-299 -357h145c80 -1 87 3 116 66h18l-44 -132h-296c-12 -5 -14 -6 -22 -13l-9 9l317 377h-148c-46 1 -61 -10 -82 -60z" />
    <glyph glyph-name="braceleft" unicode="{" horiz-adv-x="400" 
d="M420 697l-3 -12c-63 -16 -89 -46 -110 -125l-44 -171c-22 -84 -47 -113 -113 -130c39 -18 56 -37 56 -65c0 -21 -4 -41 -37 -172c-27 -105 -27 -105 -27 -123c0 -37 15 -56 54 -67l-2 -11c-94 2 -128 24 -128 80c0 23 10 69 31 144c21 76 33 131 33 155
c0 29 -14 44 -53 59c65 17 86 41 105 115l47 181c31 108 76 142 191 142z" />
    <glyph glyph-name="bar" unicode="|" horiz-adv-x="275" 
d="M119 -155v831h66v-831h-66z" />
    <glyph glyph-name="braceright" unicode="}" horiz-adv-x="400" 
d="M228 685l3 12c93 -3 127 -24 127 -80c0 -24 -10 -71 -31 -145c-22 -76 -33 -130 -33 -155c0 -29 14 -44 54 -58c-65 -18 -87 -42 -106 -116l-47 -181c-31 -107 -76 -141 -190 -141l3 11c63 16 89 46 109 125l44 171c22 84 47 113 114 131c-40 16 -57 36 -57 64
c0 19 16 92 42 192c16 59 22 88 22 102c0 38 -16 58 -54 68z" />
    <glyph glyph-name="asciitilde" unicode="~" horiz-adv-x="541" 
d="M461 303l55 -32c-48 -65 -76 -85 -122 -85c-45 0 -63 6 -153 54c-18 9 -38 14 -59 14c-31 0 -48 -12 -73 -51l-55 32c46 64 76 85 122 85c45 0 63 -7 153 -54c17 -9 38 -14 59 -14c31 0 48 12 73 51z" />
    <glyph glyph-name="uni00A0" unicode="&#xa0;" horiz-adv-x="250" 
 />
    <glyph glyph-name="exclamdown" unicode="&#xa1;" horiz-adv-x="389" 
d="M238 289l17 -4c-34 -164 -52 -259 -69 -375c-13 -85 -33 -118 -70 -118c-27 0 -41 18 -41 53c0 31 9 61 38 123c35 80 70 167 125 321zM284 479c30 0 52 -23 52 -55c0 -27 -25 -51 -52 -51c-30 0 -56 25 -56 54s25 52 56 52z" />
    <glyph glyph-name="cent" unicode="&#xa2;" 
d="M382 568l-33 -122c37 -3 53 -8 72 -22c22 -16 36 -41 36 -63c0 -26 -19 -43 -45 -43c-27 0 -43 16 -43 43c0 8 2 14 7 25c4 8 5 13 5 17c0 14 -12 22 -37 23l-108 -397c8 -3 15 -4 26 -4c50 0 88 22 139 82l17 -10c-54 -76 -107 -108 -181 -108c-4 0 -6 0 -11 1l-37 -135
h-31l37 138c-28 6 -42 12 -59 24c-40 29 -63 82 -63 147c0 94 50 185 133 241c36 24 61 33 113 41l33 122h30zM209 42l103 381c-51 -15 -78 -38 -109 -91c-27 -47 -43 -107 -43 -164c0 -61 15 -99 49 -126z" />
    <glyph glyph-name="sterling" unicode="&#xa3;" 
d="M398 323h-128c-25 -112 -31 -127 -72 -218c72 -27 120 -38 163 -38c30 0 51 7 80 27l10 7l11 -9c-25 -63 -75 -98 -143 -98c-50 0 -81 14 -147 64c-39 -49 -61 -64 -96 -64c-40 0 -67 26 -67 66s39 68 95 68c15 0 15 0 57 -12l23 207h-114l8 43h112c19 115 40 171 90 236
c37 50 89 77 143 77c56 0 95 -32 95 -77c0 -27 -14 -41 -40 -41c-23 0 -30 9 -36 44c-5 33 -16 45 -41 45c-58 0 -81 -54 -121 -284h125zM147 74c-28 21 -41 26 -62 26c-31 0 -53 -19 -53 -46c0 -21 19 -38 44 -38c30 0 59 24 71 58z" />
    <glyph glyph-name="currency" unicode="&#xa4;" 
d="M4 104l99 98c-30 42 -43 81 -43 130c0 48 12 86 40 125l-100 100l50 48l99 -97c43 28 80 40 128 40c49 0 87 -12 127 -40l99 97l49 -48l-97 -100c29 -42 41 -80 41 -129c0 -47 -11 -83 -38 -126l98 -98l-48 -50l-101 99c-39 -28 -79 -41 -126 -41s-87 13 -129 41l-97 -99
zM280 483c-84 0 -151 -66 -151 -150c0 -87 67 -156 151 -156c82 0 147 67 147 152c0 84 -67 154 -147 154z" />
    <glyph glyph-name="yen" unicode="&#xa5;" 
d="M474 185h-183l-8 -28c-15 -47 -22 -79 -22 -98c0 -14 3 -22 11 -29c9 -8 9 -8 83 -14v-16h-289l4 16c64 5 93 24 110 75l26 94h-167l12 41h166l23 80l-3 10h-166l12 41h142l-66 222c-18 55 -23 59 -90 67v16h242v-16c-64 -6 -75 -11 -75 -36c0 -15 11 -56 41 -156
c14 -45 17 -56 30 -102c11 13 20 24 29 34c115 134 162 200 162 228c0 8 -4 17 -10 20c-11 6 -11 6 -61 12v16h192v-16c-32 -14 -41 -22 -74 -62l-181 -227h153l-12 -41h-172l-6 -8l-24 -82h183z" />
    <glyph glyph-name="brokenbar" unicode="&#xa6;" horiz-adv-x="275" 
d="M105 -153v330h66v-330h-66zM105 315v329h66v-329h-66z" />
    <glyph glyph-name="section" unicode="&#xa7;" 
d="M250 404l2 3c-52 63 -69 98 -69 143c0 73 61 125 149 125c77 0 132 -42 132 -101c0 -34 -20 -55 -52 -55c-28 0 -48 19 -48 46c0 14 6 25 22 38c9 8 13 14 13 19c0 18 -26 32 -61 32c-58 0 -93 -32 -93 -84c0 -26 9 -52 27 -73l126 -152c27 -33 43 -76 43 -118
c0 -76 -47 -126 -119 -126c-15 0 -21 1 -33 7l-2 -3c54 -68 65 -90 65 -131c0 -79 -67 -138 -157 -138c-78 0 -139 48 -139 110c0 35 21 56 56 56c30 0 48 -16 48 -44c0 -22 -7 -33 -27 -46c-11 -7 -15 -11 -15 -18c0 -19 34 -37 73 -37c60 0 102 37 102 91
c0 31 -13 55 -51 99l-78 88c-49 55 -74 108 -74 156c0 69 48 124 107 124c18 0 35 -4 53 -11zM214 394c-38 0 -67 -29 -67 -67c0 -72 110 -205 170 -205c36 0 65 33 65 72c0 35 -14 64 -59 123c-40 52 -75 77 -109 77z" />
    <glyph glyph-name="dieresis" unicode="&#xa8;" horiz-adv-x="333" 
d="M164 614c25 0 49 -24 49 -50c0 -27 -22 -49 -49 -49c-28 0 -50 22 -50 51c0 27 22 48 50 48zM367 614c25 0 49 -24 49 -50c0 -27 -22 -49 -49 -49c-28 0 -50 22 -50 51c0 27 22 48 50 48z" />
    <glyph glyph-name="copyright" unicode="&#xa9;" horiz-adv-x="760" 
d="M405 675c196 0 347 -155 347 -355c0 -188 -151 -338 -339 -338c-194 0 -349 154 -349 349c0 191 151 344 341 344zM406 632c-156 0 -286 -136 -286 -301c0 -167 133 -306 292 -306c154 0 284 136 284 296c0 171 -130 311 -290 311zM558 524l10 -128h-18
c-25 73 -71 108 -142 108c-91 0 -147 -67 -147 -176c0 -121 56 -190 156 -190c61 0 103 22 144 74l17 -8c-48 -66 -100 -93 -179 -93c-122 0 -215 89 -215 204c0 120 98 209 229 209c29 0 37 -2 86 -17c8 -3 14 -4 18 -4c11 0 15 4 22 21h19z" />
    <glyph glyph-name="ordfeminine" unicode="&#xaa;" horiz-adv-x="276" 
d="M312 682l53 2c-30 -111 -51 -193 -52 -205c-2 -9 -3 -15 -3 -16c-1 -3 -1 -6 -1 -8c0 -3 2 -6 4 -6c6 0 17 10 45 40l7 -10c-49 -56 -64 -67 -90 -67c-20 0 -32 10 -32 26c0 17 3 27 17 62c-50 -69 -77 -88 -127 -88s-80 27 -80 72c0 94 101 201 189 201
c35 0 55 -11 61 -35l7 30zM262 667c-52 6 -135 -104 -135 -179c0 -22 14 -42 30 -42c24 0 52 20 77 57c28 40 48 93 48 125c0 22 -8 38 -20 39z" />
    <glyph glyph-name="guillemotleft" unicode="&#xab;" 
d="M65 219v9l36 28c54 42 66 51 84 68c80 70 98 85 105 85c4 0 7 -4 7 -8c0 -13 -16 -36 -52 -74c-13 -14 -26 -27 -40 -39c-15 -15 -37 -38 -65 -68l21 -41c38 -69 64 -125 64 -135c0 -4 -3 -7 -7 -7c-10 0 -35 28 -62 69c-6 9 -13 17 -22 28c-35 39 -52 60 -69 85z
M229 219v9l36 28c55 42 66 51 84 68c82 71 98 85 105 85c4 0 7 -4 7 -8c0 -13 -16 -36 -52 -74c-13 -14 -26 -27 -40 -39c-15 -15 -37 -38 -65 -68c10 -18 18 -35 21 -41c38 -69 64 -125 64 -135c0 -4 -3 -7 -7 -7c-10 0 -36 28 -62 69c-6 9 -13 18 -22 28
c-34 38 -52 60 -69 85z" />
    <glyph glyph-name="logicalnot" unicode="&#xac;" horiz-adv-x="675" 
d="M34 388h504v-270h-66v206h-438v64z" />
    <glyph glyph-name="uni00AD" unicode="&#xad;" horiz-adv-x="333" 
d="M289 259l-13 -64h-223l14 64h222z" />
    <glyph glyph-name="registered" unicode="&#xae;" horiz-adv-x="760" 
d="M247 503v15h177c72 0 117 -36 117 -93c0 -48 -27 -83 -79 -103l58 -79c32 -44 57 -70 77 -86v-9h-64c-18 1 -33 17 -70 81c-18 29 -28 46 -53 83h-48l1 -100c1 -32 2 -37 8 -41c8 -4 10 -4 41 -8v-15h-162v15c34 4 38 5 44 11c3 4 4 14 4 38l-2 242c-1 31 -2 38 -8 41
c-8 4 -9 5 -41 8zM360 499l2 -169h43c44 0 68 31 68 89c0 53 -24 80 -71 80h-42zM407 675c196 0 347 -155 347 -355c0 -188 -151 -338 -339 -338c-194 0 -349 154 -349 349c0 191 151 344 341 344zM408 632c-156 0 -286 -136 -286 -301c0 -167 133 -306 292 -306
c154 0 284 136 284 296c0 171 -130 311 -290 311z" />
    <glyph glyph-name="macron" unicode="&#xaf;" horiz-adv-x="333" 
d="M146 709h307l-13 -43h-306z" />
    <glyph glyph-name="degree" unicode="&#xb0;" horiz-adv-x="400" 
d="M282 685c81 0 146 -65 146 -146c0 -82 -63 -144 -145 -144c-80 0 -145 65 -145 146s63 144 144 144zM282 651c-57 0 -104 -50 -104 -110s48 -112 105 -112c58 0 105 49 105 110s-49 112 -106 112z" />
    <glyph glyph-name="plusminus" unicode="&#xb1;" horiz-adv-x="675" 
d="M113 60v54h497l1 -54h-498zM332 400l-2 223h54l2 -223h222v-54h-222l2 -162h-54l-1 162h-223v54h222z" />
    <glyph glyph-name="twosuperior" unicode="&#xb2;" horiz-adv-x="300" 
d="M301 363l11 -8l-33 -80h-234v18l134 132c61 60 92 108 92 140c0 38 -35 68 -79 68c-37 0 -61 -14 -91 -53l-13 8c14 34 24 48 42 64c26 21 59 33 94 33c62 0 113 -46 113 -103c0 -35 -12 -53 -99 -137l-114 -111l2 -5h109c39 1 51 7 66 34z" />
    <glyph glyph-name="threesuperior" unicode="&#xb3;" horiz-adv-x="300" 
d="M160 617l-11 7c21 38 61 62 107 62c54 0 96 -34 96 -78c0 -39 -24 -60 -101 -88l4 -2c28 -14 29 -15 38 -25c15 -16 22 -36 22 -63c0 -93 -77 -158 -186 -158c-48 0 -74 14 -74 39c0 17 13 29 30 29c9 0 22 -6 39 -18c19 -14 32 -19 43 -19c49 0 85 40 85 93
c0 63 -39 100 -103 100h-13v9c101 19 148 49 148 95c0 30 -22 53 -51 53c-27 0 -42 -7 -73 -36z" />
    <glyph glyph-name="acute" unicode="&#xb4;" horiz-adv-x="333" 
d="M192 501l163 162c6 7 15 10 25 10c21 0 37 -16 37 -36c0 -13 -5 -21 -17 -29l-173 -107h-35z" />
    <glyph glyph-name="mu" unicode="&#xb5;" 
d="M510 434l-94 -341c-6 -23 -7 -27 -7 -37c0 -17 9 -26 25 -26c17 0 32 7 58 27l-3 -9c-46 -44 -72 -58 -112 -58c-37 0 -55 18 -55 56c0 10 1 20 5 35c-56 -63 -105 -91 -161 -91c-22 0 -45 7 -61 18c-19 12 -28 27 -38 59c-4 -30 -5 -46 -5 -91
c-1 -124 -28 -188 -79 -188c-23 0 -33 13 -33 42c0 35 10 63 44 123c19 43 31 74 38 102l103 379h89l-80 -288c-2 -7 -4 -24 -4 -34c0 -40 26 -66 66 -66c44 0 89 25 127 71l88 317h89z" />
    <glyph glyph-name="paragraph" unicode="&#xb6;" horiz-adv-x="523" 
d="M296 640l8 -820h-66l-4 453c-63 2 -91 10 -125 33c-47 34 -71 91 -71 174c0 128 61 182 207 182h263v-19c-77 -7 -86 -17 -87 -90l7 -733h-66l-8 820h-58zM234 295l-4 345c-39 -3 -56 -9 -75 -22c-28 -21 -41 -64 -41 -134c0 -86 16 -138 52 -166c18 -14 34 -20 68 -23z
" />
    <glyph glyph-name="periodcentered" unicode="&#xb7;" horiz-adv-x="250" 
d="M138 315c32 0 58 -27 58 -59c0 -29 -26 -54 -58 -54c-30 0 -55 25 -55 56s25 57 55 57z" />
    <glyph glyph-name="cedilla" unicode="&#xb8;" horiz-adv-x="333" 
d="M37 -97l60 97h38l-44 -67c10 2 17 3 26 3c51 0 83 -27 83 -70c0 -50 -50 -86 -120 -86c-29 0 -52 5 -94 21l17 30c30 -11 47 -15 68 -15c35 0 54 15 54 41s-20 45 -47 45c-11 0 -19 -2 -32 -7z" />
    <glyph glyph-name="onesuperior" unicode="&#xb9;" horiz-adv-x="300" 
d="M263 291l1 -16h-184l-1 16c48 5 60 10 65 26l79 288c4 16 4 16 4 21c0 11 -8 19 -19 19h-4l-34 -1l-1 19c27 4 48 7 71 12c27 5 45 9 54 9l4 1h3c3 0 5 -2 5 -5c0 -4 -1 -10 -3 -16l-75 -278c-10 -39 -16 -64 -16 -72c0 -18 11 -22 51 -23z" />
    <glyph glyph-name="ordmasculine" unicode="&#xba;" horiz-adv-x="310" 
d="M293 685c58 0 99 -36 99 -86c0 -93 -100 -187 -199 -187c-60 0 -99 33 -99 85c0 97 97 188 199 188zM286 663c-55 4 -118 -93 -118 -180c0 -28 15 -47 39 -47c18 0 37 9 50 23c36 37 61 102 61 156c0 31 -10 47 -32 48z" />
    <glyph glyph-name="guillemotright" unicode="&#xbb;" 
d="M464 227v-9l-36 -28c-54 -42 -65 -51 -84 -68c-82 -72 -98 -85 -105 -85c-4 0 -7 3 -7 8c0 13 16 35 52 74c13 14 26 27 40 39c15 15 37 38 65 68c-10 19 -18 35 -21 41c-37 68 -64 125 -64 135c0 4 3 7 7 7c9 0 35 -29 62 -69c6 -8 13 -17 22 -28c37 -42 57 -68 69 -85z
M299 227l1 -9c-12 -9 -24 -18 -36 -28c-54 -42 -66 -51 -84 -68c-83 -72 -98 -85 -105 -85c-4 0 -7 3 -7 8c0 13 16 35 52 74c13 14 26 27 40 39c15 15 37 38 64 68c-9 19 -18 35 -21 41c-36 68 -63 125 -63 135c0 4 3 7 7 7c9 0 35 -29 62 -69c6 -8 13 -17 22 -28
c36 -41 57 -68 68 -85z" />
    <glyph glyph-name="onequarter" unicode="&#xbc;" horiz-adv-x="750" 
d="M672 149l-7 -44h-59l-26 -105h-64l28 106h-170l11 43l263 263h37l-69 -263h56zM604 338l-183 -189h130zM241 291l1 -16h-183l-1 16c47 5 60 10 65 26l78 288c3 10 4 16 4 20c0 12 -7 20 -19 20h-5l-32 -1l-1 19c22 3 36 6 70 12c31 6 56 10 61 10c4 0 5 -2 5 -6
s-1 -9 -2 -15l-75 -278c-10 -36 -16 -64 -16 -72c0 -18 11 -22 50 -23zM639 685l-430 -695h-52l431 695h51z" />
    <glyph glyph-name="onehalf" unicode="&#xbd;" horiz-adv-x="750" 
d="M616 685l-431 -695h-51l430 695h52zM241 291l1 -16h-183l-1 16c47 5 60 10 65 26l78 288c3 10 4 16 4 20c0 12 -7 20 -19 20h-5l-32 -1l-1 19c22 3 36 6 70 12c31 6 56 10 61 10c4 0 5 -2 5 -6s-1 -9 -2 -15l-75 -278c-10 -36 -16 -64 -16 -72c0 -18 11 -22 50 -23z
M690 88l11 -8l-29 -80h-235l-1 18l129 132c59 60 89 107 89 138c0 39 -37 71 -82 71c-37 0 -60 -14 -89 -54l-14 9c13 33 23 48 41 64c25 22 59 34 92 34c63 0 117 -49 117 -107c0 -34 -11 -50 -95 -134l-110 -112l2 -5h109c39 1 51 7 65 34z" />
    <glyph glyph-name="threequarters" unicode="&#xbe;" horiz-adv-x="750" 
d="M689 149l-8 -44h-58l-26 -105h-64l28 106h-171l12 43l263 263h36l-68 -263h56zM620 338l-183 -189h131zM149 617l-11 7c20 38 59 62 105 62c55 0 99 -35 99 -80c0 -38 -23 -59 -98 -86l4 -2c30 -15 30 -15 39 -25c17 -17 25 -39 25 -68c0 -90 -74 -153 -181 -153
c-49 0 -76 14 -76 40c0 16 13 28 29 28c9 0 22 -6 40 -18c20 -14 32 -19 44 -19c47 0 82 38 82 89c0 64 -41 104 -107 104h-13v9c98 18 144 48 144 93c0 31 -23 55 -54 55c-26 0 -40 -8 -71 -36zM640 685l-431 -695h-52l431 695h52z" />
    <glyph glyph-name="questiondown" unicode="&#xbf;" 
d="M298 289l17 -2c-16 -101 -28 -123 -111 -219c-65 -72 -87 -114 -87 -167c0 -56 29 -87 82 -87c44 0 71 18 71 48c0 9 -2 15 -8 28c-6 11 -8 17 -8 25c0 21 16 36 40 36c25 0 40 -18 40 -49c0 -65 -58 -110 -141 -110c-92 0 -151 52 -151 132c0 62 19 88 134 182
c72 58 101 96 115 154zM328 477c30 0 54 -23 54 -52s-23 -52 -53 -52c-29 0 -54 24 -54 52s24 52 53 52z" />
    <glyph glyph-name="Agrave" unicode="&#xc0;" horiz-adv-x="611" 
d="M584 16v-16h-250v16c65 6 79 15 79 51c0 8 -1 19 -3 29l-21 133h-223l-57 -114c-18 -37 -20 -43 -20 -62c0 -27 8 -31 61 -37v-16h-190v16c41 8 51 20 129 154l290 508h26l101 -575c13 -74 20 -82 78 -87zM187 266h197l-48 264zM440 714l-143 107c-13 10 -19 21 -19 33
c0 19 15 34 35 34c15 0 27 -7 40 -23l119 -151h-32z" />
    <glyph glyph-name="Aacute" unicode="&#xc1;" horiz-adv-x="611" 
d="M584 16v-16h-250v16c65 6 79 15 79 51c0 8 -1 19 -3 29l-21 133h-223l-57 -114c-18 -37 -20 -43 -20 -62c0 -27 8 -31 61 -37v-16h-190v16c41 8 51 20 129 154l290 508h26l101 -575c13 -74 20 -82 78 -87zM187 266h197l-48 264zM329 716l162 162c7 7 15 10 25 10
c21 0 37 -16 37 -36c0 -13 -5 -21 -17 -28l-172 -108h-35z" />
    <glyph glyph-name="Acircumflex" unicode="&#xc2;" horiz-adv-x="611" 
d="M584 16v-16h-250v16c65 6 79 15 79 51c0 8 -1 19 -3 29l-21 133h-223l-57 -114c-18 -37 -20 -43 -20 -62c0 -27 8 -31 61 -37v-16h-190v16c41 8 51 20 129 154l290 508h26l101 -575c13 -74 20 -82 78 -87zM187 266h197l-48 264zM451 885l91 -171h-37l-84 105l-138 -105
h-40l158 171h50z" />
    <glyph glyph-name="Atilde" unicode="&#xc3;" horiz-adv-x="611" 
d="M584 16v-16h-250v16c65 6 79 15 79 51c0 8 -1 19 -3 29l-21 133h-223l-57 -114c-18 -37 -20 -43 -20 -62c0 -27 8 -31 61 -37v-16h-190v16c41 8 51 20 129 154l290 508h26l101 -575c13 -74 20 -82 78 -87zM187 266h197l-48 264zM549 848h29c-14 -69 -47 -106 -95 -106
c-13 0 -32 5 -59 16c-54 21 -79 29 -96 29c-26 0 -42 -15 -51 -48h-30c20 78 48 108 101 108c23 0 49 -7 87 -25c31 -14 48 -19 63 -19c28 0 41 11 51 45z" />
    <glyph glyph-name="Adieresis" unicode="&#xc4;" horiz-adv-x="611" 
d="M584 16v-16h-250v16c65 6 79 15 79 51c0 8 -1 19 -3 29l-21 133h-223l-57 -114c-18 -37 -20 -43 -20 -62c0 -27 8 -31 61 -37v-16h-190v16c41 8 51 20 129 154l290 508h26l101 -575c13 -74 20 -82 78 -87zM187 266h197l-48 264zM298 829c25 0 49 -24 49 -50
c0 -27 -22 -49 -49 -49c-28 0 -50 22 -50 51c0 27 22 48 50 48zM501 829c25 0 49 -24 49 -50c0 -27 -22 -49 -49 -49c-28 0 -50 22 -50 51c0 27 22 48 50 48z" />
    <glyph glyph-name="Aring" unicode="&#xc5;" horiz-adv-x="611" 
d="M584 16v-16h-250v16c65 6 79 15 79 51c0 8 -1 19 -3 29l-21 133h-223l-57 -114c-18 -37 -20 -43 -20 -62c0 -27 8 -31 61 -37v-16h-190v16c41 8 51 20 129 154l290 508h26l101 -575c13 -74 20 -82 78 -87zM187 266h197l-48 264zM397 917c56 0 103 -46 103 -102
c0 -55 -45 -100 -101 -100c-57 0 -102 45 -102 103c0 54 45 99 100 99zM397 883c-35 0 -65 -30 -65 -66c0 -38 29 -68 66 -68c38 0 67 28 67 66s-30 68 -68 68z" />
    <glyph glyph-name="AE" unicode="&#xc6;" horiz-adv-x="889" 
d="M846 171l19 -5l-64 -166h-505v16c62 6 69 11 81 49l48 172h-193c-11 -14 -21 -26 -25 -31c-61 -73 -100 -135 -100 -159c0 -19 12 -25 66 -31v-16h-190v16c25 6 37 18 84 77l370 472c30 38 32 41 32 54c0 8 -4 15 -9 18c-6 4 -25 7 -56 10v15h524l-32 -155l-17 2v35
c0 73 -29 85 -195 85c-48 0 -56 -5 -65 -38l-59 -225c161 2 171 6 213 99l18 -4l-68 -236l-17 4c4 24 6 37 6 52c0 43 -22 52 -121 52h-40l-7 -24c-50 -185 -63 -234 -63 -246c0 -21 16 -30 52 -30h31c152 1 210 29 282 138zM260 275h176l93 347z" />
    <glyph glyph-name="Ccedilla" unicode="&#xc7;" horiz-adv-x="667" 
d="M292 -12l-35 -41c10 1 16 2 25 2c52 0 84 -21 84 -54c0 -40 -49 -67 -121 -67c-28 0 -51 4 -93 17l17 23c30 -10 47 -13 69 -13c34 0 53 11 53 32c0 20 -20 35 -47 35c-10 0 -18 -1 -32 -5l-9 6l56 71c-112 32 -183 131 -183 255c0 225 192 426 408 426
c34 0 74 -6 119 -17c21 -5 32 -7 41 -7c20 0 31 6 38 22h22l-36 -201l-18 3c-11 108 -63 163 -157 163c-67 0 -130 -28 -178 -78c-78 -81 -125 -201 -125 -320c0 -135 65 -213 179 -213c84 0 141 30 232 120l18 -14c-41 -48 -63 -70 -100 -95c-55 -37 -110 -57 -159 -57
c-6 0 -29 2 -68 7z" />
    <glyph glyph-name="Egrave" unicode="&#xc8;" horiz-adv-x="611" 
d="M649 662l-30 -155l-21 2c1 17 1 29 1 45c0 61 -35 75 -195 75c-58 0 -68 -4 -74 -26l-65 -237c36 1 68 2 81 2c91 4 101 10 138 97l19 -5l-67 -235l-20 5c5 23 6 33 6 51c0 21 -2 29 -11 36c-8 7 -32 11 -61 12l-46 1l-48 3c-13 -51 -26 -102 -31 -117
c-24 -88 -35 -136 -35 -149c0 -24 24 -34 80 -34c78 0 146 10 183 28c44 20 71 46 117 111l17 -8l-62 -164h-514v16c57 10 64 17 81 75l121 449c6 22 11 52 11 64c0 28 -15 36 -79 42v16h504zM455 714l-143 107c-13 10 -19 20 -19 33c0 19 15 34 35 34c15 0 27 -7 40 -23
l119 -151h-32z" />
    <glyph glyph-name="Eacute" unicode="&#xc9;" horiz-adv-x="611" 
d="M649 662l-30 -155l-21 2c1 17 1 29 1 45c0 61 -35 75 -195 75c-58 0 -68 -4 -74 -26l-65 -237c36 1 68 2 81 2c91 4 101 10 138 97l19 -5l-67 -235l-20 5c5 23 6 33 6 51c0 21 -2 29 -11 36c-8 7 -32 11 -61 12l-46 1l-48 3c-13 -51 -26 -102 -31 -117
c-24 -88 -35 -136 -35 -149c0 -24 24 -34 80 -34c78 0 146 10 183 28c44 20 71 46 117 111l17 -8l-62 -164h-514v16c57 10 64 17 81 75l121 449c6 22 11 52 11 64c0 28 -15 36 -79 42v16h504zM350 716l163 162c6 7 15 10 25 10c21 0 37 -16 37 -36c0 -13 -5 -21 -17 -28
l-172 -108h-36z" />
    <glyph glyph-name="Ecircumflex" unicode="&#xca;" horiz-adv-x="611" 
d="M649 662l-30 -155l-21 2c1 17 1 29 1 45c0 61 -35 75 -195 75c-58 0 -68 -4 -74 -26l-65 -237c36 1 68 2 81 2c91 4 101 10 138 97l19 -5l-67 -235l-20 5c5 23 6 33 6 51c0 21 -2 29 -11 36c-8 7 -32 11 -61 12l-46 1l-48 3c-13 -51 -26 -102 -31 -117
c-24 -88 -35 -136 -35 -149c0 -24 24 -34 80 -34c78 0 146 10 183 28c44 20 71 46 117 111l17 -8l-62 -164h-514v16c57 10 64 17 81 75l121 449c6 22 11 52 11 64c0 28 -15 36 -79 42v16h504zM481 885l91 -171h-36l-85 105l-138 -105h-39l158 171h49z" />
    <glyph glyph-name="Edieresis" unicode="&#xcb;" horiz-adv-x="611" 
d="M649 662l-30 -155l-21 2c1 17 1 29 1 45c0 61 -35 75 -195 75c-58 0 -68 -4 -74 -26l-65 -237c36 1 68 2 81 2c91 4 101 10 138 97l19 -5l-67 -235l-20 5c5 23 6 33 6 51c0 21 -2 29 -11 36c-8 7 -32 11 -61 12l-46 1l-48 3c-13 -51 -26 -102 -31 -117
c-24 -88 -35 -136 -35 -149c0 -24 24 -34 80 -34c78 0 146 10 183 28c44 20 71 46 117 111l17 -8l-62 -164h-514v16c57 10 64 17 81 75l121 449c6 22 11 52 11 64c0 28 -15 36 -79 42v16h504zM326 829c25 0 49 -24 49 -50c0 -27 -22 -49 -49 -49c-28 0 -50 22 -50 51
c0 27 22 48 50 48zM528 829c25 0 49 -24 49 -50c0 -27 -22 -49 -49 -49c-28 0 -50 22 -50 51c0 27 22 48 50 48z" />
    <glyph glyph-name="Igrave" unicode="&#xcc;" horiz-adv-x="333" 
d="M6 0v16c57 10 64 17 81 75l121 448c8 30 11 47 11 62c0 30 -12 37 -72 45v16h250l1 -16c-59 -10 -66 -16 -83 -75l-120 -449c-10 -35 -11 -43 -11 -63c0 -29 10 -36 69 -43l1 -16h-248zM334 714l-143 107c-14 11 -20 21 -20 33c0 19 15 34 35 34c16 0 27 -7 40 -23
l119 -151h-31z" />
    <glyph glyph-name="Iacute" unicode="&#xcd;" horiz-adv-x="333" 
d="M6 0v16c57 10 64 17 81 75l121 448c8 30 11 47 11 62c0 30 -12 37 -72 45v16h250l1 -16c-59 -10 -66 -16 -83 -75l-120 -449c-10 -35 -11 -43 -11 -63c0 -29 10 -36 69 -43l1 -16h-248zM205 716l163 162c6 7 15 10 25 10c21 0 37 -16 37 -36c0 -13 -5 -21 -17 -28
l-173 -108h-35z" />
    <glyph glyph-name="Icircumflex" unicode="&#xce;" horiz-adv-x="333" 
d="M6 0v16c57 10 64 17 81 75l121 448c8 30 11 47 11 62c0 30 -12 37 -72 45v16h250l1 -16c-59 -10 -66 -16 -83 -75l-120 -449c-10 -35 -11 -43 -11 -63c0 -29 10 -36 69 -43l1 -16h-248zM348 885l90 -171h-36l-84 105l-138 -105h-40l158 171h50z" />
    <glyph glyph-name="Idieresis" unicode="&#xcf;" horiz-adv-x="333" 
d="M6 0v16c57 10 64 17 81 75l121 448c8 30 11 47 11 62c0 30 -12 37 -72 45v16h250l1 -16c-59 -10 -66 -16 -83 -75l-120 -449c-10 -35 -11 -43 -11 -63c0 -29 10 -36 69 -43l1 -16h-248zM196 829c25 0 49 -24 49 -50c0 -27 -22 -49 -49 -49c-28 0 -50 22 -50 51
c0 27 22 48 50 48zM399 829c25 0 49 -24 49 -50c0 -27 -22 -49 -49 -49c-28 0 -50 22 -50 51c0 27 22 48 50 48z" />
    <glyph glyph-name="Eth" unicode="&#xd0;" horiz-adv-x="722" 
d="M57 330l12 43h91l45 167c6 24 10 47 10 64c0 28 -14 36 -78 42v16h282c182 0 298 -107 298 -276c0 -117 -57 -227 -153 -298c-78 -57 -185 -88 -304 -88h-257v16c57 10 64 16 81 75l64 239h-91zM416 373l-11 -43h-156l-45 -166c-16 -59 -21 -84 -21 -96
c0 -27 19 -38 66 -38c105 0 187 30 247 91c67 69 108 179 108 290c0 80 -28 147 -79 184c-32 24 -82 37 -137 37c-44 0 -59 -7 -65 -29l-62 -230h155z" />
    <glyph glyph-name="Ntilde" unicode="&#xd1;" horiz-adv-x="667" 
d="M742 662l1 -16c-64 -15 -68 -20 -104 -151l-142 -510h-18l-239 557l-111 -427c-6 -22 -9 -42 -9 -54c0 -29 19 -41 72 -45v-16h-201v16c58 8 66 20 103 150l117 423c-19 40 -40 53 -88 57v16h163l216 -506l100 385c0 3 1 5 2 9c6 22 8 32 8 43c0 38 -13 48 -71 53v16h201
zM599 848h28c-13 -69 -47 -106 -95 -106c-13 0 -31 5 -59 16c-54 22 -79 29 -96 29c-26 0 -42 -15 -51 -48h-29c19 78 47 108 100 108c23 0 49 -7 87 -25c31 -14 48 -19 63 -19c28 0 41 11 52 45z" />
    <glyph glyph-name="Ograve" unicode="&#xd2;" horiz-adv-x="722" 
d="M486 675c137 0 237 -110 230 -254c-11 -228 -213 -439 -422 -439c-131 0 -224 102 -224 246c0 118 58 239 159 332c80 74 171 115 257 115zM477 641c-74 0 -136 -39 -192 -120c-60 -88 -108 -236 -108 -332c0 -112 48 -174 133 -174c72 0 134 40 189 120
c64 94 110 239 110 349c0 97 -51 157 -132 157zM530 714l-143 107c-13 10 -19 20 -19 33c0 19 15 34 35 34c15 0 27 -7 40 -23l119 -151h-32z" />
    <glyph glyph-name="Oacute" unicode="&#xd3;" horiz-adv-x="722" 
d="M486 675c137 0 237 -110 230 -254c-11 -228 -213 -439 -422 -439c-131 0 -224 102 -224 246c0 118 58 239 159 332c80 74 171 115 257 115zM477 641c-74 0 -136 -39 -192 -120c-60 -88 -108 -236 -108 -332c0 -112 48 -174 133 -174c72 0 134 40 189 120
c64 94 110 239 110 349c0 97 -51 157 -132 157zM399 716l162 162c7 7 15 10 25 10c21 0 37 -16 37 -36c0 -13 -5 -21 -17 -28l-172 -108h-35z" />
    <glyph glyph-name="Ocircumflex" unicode="&#xd4;" horiz-adv-x="722" 
d="M486 675c137 0 237 -110 230 -254c-11 -228 -213 -439 -422 -439c-131 0 -224 102 -224 246c0 118 58 239 159 332c80 74 171 115 257 115zM477 641c-74 0 -136 -39 -192 -120c-60 -88 -108 -236 -108 -332c0 -112 48 -174 133 -174c72 0 134 40 189 120
c64 94 110 239 110 349c0 97 -51 157 -132 157zM543 885l90 -171h-36l-84 105l-138 -105h-40l158 171h50z" />
    <glyph glyph-name="Otilde" unicode="&#xd5;" horiz-adv-x="722" 
d="M486 675c137 0 237 -110 230 -254c-11 -228 -213 -439 -422 -439c-131 0 -224 102 -224 246c0 118 58 239 159 332c80 74 171 115 257 115zM477 641c-74 0 -136 -39 -192 -120c-60 -88 -108 -236 -108 -332c0 -112 48 -174 133 -174c72 0 134 40 189 120
c64 94 110 239 110 349c0 97 -51 157 -132 157zM628 848h28c-13 -69 -47 -106 -95 -106c-13 0 -31 5 -59 16c-54 22 -79 29 -96 29c-26 0 -42 -15 -51 -48h-30c20 78 48 108 101 108c23 0 49 -7 87 -25c31 -14 48 -19 63 -19c28 0 41 11 52 45z" />
    <glyph glyph-name="Odieresis" unicode="&#xd6;" horiz-adv-x="722" 
d="M486 675c137 0 237 -110 230 -254c-11 -228 -213 -439 -422 -439c-131 0 -224 102 -224 246c0 118 58 239 159 332c80 74 171 115 257 115zM477 641c-74 0 -136 -39 -192 -120c-60 -88 -108 -236 -108 -332c0 -112 48 -174 133 -174c72 0 134 40 189 120
c64 94 110 239 110 349c0 97 -51 157 -132 157zM383 829c25 0 49 -24 49 -50c0 -27 -22 -49 -49 -49c-28 0 -50 22 -50 51c0 27 22 48 50 48zM586 829c25 0 49 -24 49 -50c0 -27 -22 -49 -49 -49c-28 0 -50 22 -50 51c0 27 22 48 50 48z" />
    <glyph glyph-name="multiply" unicode="&#xd7;" horiz-adv-x="675" 
d="M326 310l-201 199l39 39l201 -200l197 200l40 -39l-198 -199l202 -200l-39 -39l-202 200l-197 -200l-39 39z" />
    <glyph glyph-name="Oslash" unicode="&#xd8;" horiz-adv-x="722" 
d="M683 732l-64 -97c33 -26 46 -40 61 -65c23 -39 36 -88 36 -136c0 -229 -208 -452 -420 -452c-31 0 -56 6 -95 21l-74 -109h-45l86 128c-25 18 -35 28 -48 45c-33 42 -50 98 -50 162c0 117 58 238 160 331c79 73 170 115 250 115c37 0 68 -6 106 -22l52 79h45zM203 75
l356 540c-25 19 -49 27 -83 27c-73 0 -135 -40 -191 -120c-62 -92 -108 -235 -108 -340c0 -41 8 -72 26 -107zM584 582l-355 -537c23 -21 46 -30 81 -30c73 0 134 39 189 119c63 92 110 240 110 345c0 41 -8 72 -25 103z" />
    <glyph glyph-name="Ugrave" unicode="&#xd9;" horiz-adv-x="722" 
d="M781 662v-16c-63 -14 -67 -19 -104 -151l-82 -289c-43 -152 -126 -224 -259 -224c-129 0 -223 71 -223 168c0 42 12 106 41 214l52 195c5 17 7 32 7 45c0 30 -11 36 -79 42v16h276l1 -16c-69 -7 -85 -22 -106 -92c0 -2 -4 -15 -5 -19c-61 -212 -96 -353 -96 -391
c0 -71 58 -120 143 -120c71 0 126 32 165 95c21 34 37 74 54 140c5 20 9 37 13 49c46 170 72 274 72 291c0 13 -7 28 -18 34c-11 8 -22 10 -54 13v16h202zM522 714l-143 107c-13 10 -19 20 -19 33c0 19 15 34 35 34c15 0 27 -7 40 -23l119 -151h-32z" />
    <glyph glyph-name="Uacute" unicode="&#xda;" horiz-adv-x="722" 
d="M781 662v-16c-63 -14 -67 -19 -104 -151l-82 -289c-43 -152 -126 -224 -259 -224c-129 0 -223 71 -223 168c0 42 12 106 41 214l52 195c5 17 7 32 7 45c0 30 -11 36 -79 42v16h276l1 -16c-69 -7 -85 -22 -106 -92c0 -2 -4 -15 -5 -19c-61 -212 -96 -353 -96 -391
c0 -71 58 -120 143 -120c71 0 126 32 165 95c21 34 37 74 54 140c5 20 9 37 13 49c46 170 72 274 72 291c0 13 -7 28 -18 34c-11 8 -22 10 -54 13v16h202zM468 716l163 162c6 6 15 10 25 10c21 0 37 -16 37 -36c0 -13 -5 -21 -17 -28l-173 -108h-35z" />
    <glyph glyph-name="Ucircumflex" unicode="&#xdb;" horiz-adv-x="722" 
d="M781 662v-16c-63 -14 -67 -19 -104 -151l-82 -289c-43 -152 -126 -224 -259 -224c-129 0 -223 71 -223 168c0 42 12 106 41 214l52 195c5 17 7 32 7 45c0 30 -11 36 -79 42v16h276l1 -16c-69 -7 -85 -22 -106 -92c0 -2 -4 -15 -5 -19c-61 -212 -96 -353 -96 -391
c0 -71 58 -120 143 -120c71 0 126 32 165 95c21 34 37 74 54 140c5 20 9 37 13 49c46 170 72 274 72 291c0 13 -7 28 -18 34c-11 8 -22 10 -54 13v16h202zM547 885l91 -171h-37l-84 105l-138 -105h-39l157 171h50z" />
    <glyph glyph-name="Udieresis" unicode="&#xdc;" horiz-adv-x="722" 
d="M781 662v-16c-63 -14 -67 -19 -104 -151l-82 -289c-43 -152 -126 -224 -259 -224c-129 0 -223 71 -223 168c0 42 12 106 41 214l52 195c5 17 7 32 7 45c0 30 -11 36 -79 42v16h276l1 -16c-69 -7 -85 -22 -106 -92c0 -2 -4 -15 -5 -19c-61 -212 -96 -353 -96 -391
c0 -71 58 -120 143 -120c71 0 126 32 165 95c21 34 37 74 54 140c5 20 9 37 13 49c46 170 72 274 72 291c0 13 -7 28 -18 34c-11 8 -22 10 -54 13v16h202zM411 829c25 0 49 -24 49 -50c0 -27 -22 -49 -49 -49c-28 0 -50 22 -50 50s22 49 50 49zM614 829c25 0 49 -24 49 -50
c0 -27 -22 -49 -49 -49c-28 0 -50 22 -50 50s22 49 50 49z" />
    <glyph glyph-name="Yacute" unicode="&#xdd;" horiz-adv-x="556" 
d="M99 646v16h242l1 -16c-61 -6 -73 -12 -73 -36c0 -15 12 -62 38 -146c17 -58 20 -68 32 -112c15 18 21 25 39 46c103 121 150 188 150 216c0 9 -4 17 -10 20c-12 6 -12 6 -61 12v16h192v-16c-30 -14 -38 -22 -71 -62l-219 -274l-29 -102c-1 -5 -3 -12 -5 -20
c-25 -84 -31 -109 -31 -131c0 -13 5 -24 13 -28c10 -6 24 -9 41 -10c9 0 21 -1 37 -3v-16h-293v16c67 5 89 20 106 75l60 215l-81 273c-18 56 -21 59 -78 67zM364 716l163 162c7 7 15 10 25 10c21 0 37 -16 37 -36c0 -13 -5 -21 -17 -28l-172 -108h-36z" />
    <glyph glyph-name="Thorn" unicode="&#xde;" horiz-adv-x="611" 
d="M154 646v16h241v-16c-40 -5 -53 -14 -62 -43l-20 -78h57c140 0 216 -54 216 -153c0 -59 -29 -114 -79 -151c-42 -32 -112 -49 -198 -49c-43 0 -65 3 -90 10l-16 -60c-10 -36 -12 -45 -12 -57c0 -36 5 -40 69 -49l1 -16h-249v16c58 8 64 14 82 75l116 431
c14 53 17 66 17 81c0 27 -14 36 -73 43zM298 465l-70 -251c30 -5 35 -5 53 -5c63 0 103 8 134 26c44 25 67 71 67 136c0 50 -12 80 -39 100c-21 14 -59 24 -98 24c-29 0 -41 -8 -47 -30z" />
    <glyph glyph-name="germandbls" unicode="&#xdf;" 
d="M344 389v-3c32 -4 48 -9 66 -21c36 -24 59 -70 59 -116c0 -70 -34 -151 -87 -205c-35 -36 -84 -57 -131 -57c-49 0 -81 27 -81 66c0 29 18 48 45 48c24 0 39 -16 39 -40c0 -10 -2 -17 -8 -27c-3 -5 -5 -10 -5 -12c0 -7 8 -13 18 -13c27 0 52 19 72 55
c29 51 50 136 50 203c0 71 -25 104 -82 108c-21 1 -26 4 -26 15c0 10 4 13 18 13c34 0 71 17 95 44c27 30 44 84 44 140c0 51 -22 79 -62 79c-59 0 -109 -74 -149 -222l-116 -432c-38 -139 -108 -222 -190 -222c-47 0 -78 25 -78 63c0 27 15 43 40 43c23 0 40 -15 40 -36
c0 -8 -3 -19 -8 -28c-3 -4 -4 -7 -4 -9c0 -6 7 -9 17 -9c51 0 78 44 110 182l76 323c60 261 139 370 265 370c84 0 140 -52 140 -131c0 -76 -47 -124 -158 -166z" />
    <glyph glyph-name="agrave" unicode="&#xe0;" 
d="M478 112l12 -11c-77 -92 -101 -111 -142 -111c-28 0 -40 12 -40 41c0 26 2 34 25 117c-91 -125 -134 -159 -206 -159c-64 0 -102 41 -102 111c0 160 158 347 293 347c44 0 73 -21 81 -58l11 48l3 3l62 7l7 -3c-2 -9 -3 -11 -6 -21c-48 -168 -94 -348 -94 -368
c0 -7 6 -13 14 -13c10 0 23 10 53 41c7 7 14 13 29 29zM324 425c-42 3 -89 -30 -130 -88c-45 -65 -84 -168 -84 -224c0 -46 22 -74 59 -74c29 0 63 17 88 44c70 76 123 197 123 281c0 35 -22 59 -56 61zM380 499l-142 107c-12 10 -18 20 -18 33c0 19 15 34 36 34
c15 0 26 -7 39 -23l116 -151h-31z" />
    <glyph glyph-name="aacute" unicode="&#xe1;" 
d="M478 112l12 -11c-77 -92 -101 -111 -142 -111c-28 0 -40 12 -40 41c0 26 2 34 25 117c-91 -125 -134 -159 -206 -159c-64 0 -102 41 -102 111c0 160 158 347 293 347c44 0 73 -21 81 -58l11 48l3 3l62 7l7 -3c-2 -9 -3 -11 -6 -21c-48 -168 -94 -348 -94 -368
c0 -7 6 -13 14 -13c10 0 23 10 53 41c7 7 14 13 29 29zM324 425c-42 3 -89 -30 -130 -88c-45 -65 -84 -168 -84 -224c0 -46 22 -74 59 -74c29 0 63 17 88 44c70 76 123 197 123 281c0 35 -22 59 -56 61zM293 501l166 162c6 6 15 10 25 10c21 0 37 -15 37 -36
c0 -13 -5 -21 -18 -29l-174 -107h-36z" />
    <glyph glyph-name="acircumflex" unicode="&#xe2;" 
d="M478 112l12 -11c-77 -92 -101 -111 -142 -111c-28 0 -40 12 -40 41c0 26 2 34 25 117c-91 -125 -134 -159 -206 -159c-64 0 -102 41 -102 111c0 160 158 347 293 347c44 0 73 -21 81 -58l11 48l3 3l62 7l7 -3c-2 -9 -3 -11 -6 -21c-48 -168 -94 -348 -94 -368
c0 -7 6 -13 14 -13c10 0 23 10 53 41c7 7 14 13 29 29zM324 425c-42 3 -89 -30 -130 -88c-45 -65 -84 -168 -84 -224c0 -46 22 -74 59 -74c29 0 63 17 88 44c70 76 123 197 123 281c0 35 -22 59 -56 61zM398 670l88 -171h-36l-83 105l-139 -105h-40l161 171h49z" />
    <glyph glyph-name="atilde" unicode="&#xe3;" 
d="M478 112l12 -11c-77 -92 -101 -111 -142 -111c-28 0 -40 12 -40 41c0 26 2 34 25 117c-91 -125 -134 -159 -206 -159c-64 0 -102 41 -102 111c0 160 158 347 293 347c44 0 73 -21 81 -58l11 48l3 3l62 7l7 -3c-2 -9 -3 -11 -6 -21c-48 -168 -94 -348 -94 -368
c0 -7 6 -13 14 -13c10 0 23 10 53 41c7 7 14 13 29 29zM324 425c-42 3 -89 -30 -130 -88c-45 -65 -84 -168 -84 -224c0 -46 22 -74 59 -74c29 0 63 17 88 44c70 76 123 197 123 281c0 35 -22 59 -56 61zM502 633h28c-15 -69 -48 -106 -97 -106c-13 0 -31 5 -58 16
c-54 22 -78 29 -96 29c-25 0 -42 -15 -52 -48h-29c21 78 49 108 102 108c23 0 49 -8 87 -25c31 -14 47 -19 63 -19c27 0 40 11 52 45z" />
    <glyph glyph-name="adieresis" unicode="&#xe4;" 
d="M478 112l12 -11c-77 -92 -101 -111 -142 -111c-28 0 -40 12 -40 41c0 26 2 34 25 117c-91 -125 -134 -159 -206 -159c-64 0 -102 41 -102 111c0 160 158 347 293 347c44 0 73 -21 81 -58l11 48l3 3l62 7l7 -3c-2 -9 -3 -11 -6 -21c-48 -168 -94 -348 -94 -368
c0 -7 6 -13 14 -13c10 0 23 10 53 41c7 7 14 13 29 29zM324 425c-42 3 -89 -30 -130 -88c-45 -65 -84 -168 -84 -224c0 -46 22 -74 59 -74c29 0 63 17 88 44c70 76 123 197 123 281c0 35 -22 59 -56 61zM256 614c25 0 48 -24 48 -49c0 -28 -22 -50 -50 -50s-49 22 -49 50
c0 27 23 49 51 49zM459 614c25 0 48 -24 48 -49c0 -28 -22 -50 -50 -50s-49 22 -49 50c0 27 23 49 51 49z" />
    <glyph glyph-name="aring" unicode="&#xe5;" 
d="M478 112l12 -11c-77 -92 -101 -111 -142 -111c-28 0 -40 12 -40 41c0 26 2 34 25 117c-91 -125 -134 -159 -206 -159c-64 0 -102 41 -102 111c0 160 158 347 293 347c44 0 73 -21 81 -58l11 48l3 3l62 7l7 -3c-2 -9 -3 -11 -6 -21c-48 -168 -94 -348 -94 -368
c0 -7 6 -13 14 -13c10 0 23 10 53 41c7 7 14 13 29 29zM324 425c-42 3 -89 -30 -130 -88c-45 -65 -84 -168 -84 -224c0 -46 22 -74 59 -74c29 0 63 17 88 44c70 76 123 197 123 281c0 35 -22 59 -56 61zM355 717c56 0 102 -45 102 -101c0 -55 -46 -101 -102 -101
c-58 0 -101 44 -101 101c0 55 46 101 101 101zM354 683c-35 0 -66 -31 -66 -67c0 -38 29 -67 65 -67c39 0 69 29 69 67c0 37 -30 67 -68 67z" />
    <glyph glyph-name="ae" unicode="&#xe6;" horiz-adv-x="667" 
d="M603 115l10 -13c-58 -69 -134 -113 -199 -113c-62 0 -107 50 -107 121c0 16 2 26 6 43c-87 -126 -133 -164 -198 -164c-50 0 -85 39 -85 95c0 159 161 363 287 363c35 0 50 -11 67 -47l19 43l72 2l-23 -62c49 46 83 64 124 64c51 0 82 -27 82 -70c0 -38 -22 -73 -65 -101
c-38 -25 -86 -44 -196 -75c-7 -28 -9 -39 -9 -63c0 -68 23 -101 70 -101c45 0 84 21 145 78zM318 427c-81 4 -193 -179 -201 -327c-2 -39 10 -60 34 -60c27 0 58 16 81 41c74 80 132 209 132 295c0 30 -18 50 -46 51zM403 226c91 23 135 48 167 95c14 21 21 43 21 65
c0 23 -12 36 -35 36s-47 -12 -67 -33c-36 -38 -54 -72 -86 -163z" />
    <glyph glyph-name="ccedilla" unicode="&#xe7;" horiz-adv-x="444" 
d="M183 -11l-38 -56c11 2 17 3 27 3c50 0 82 -27 82 -68c0 -51 -51 -88 -122 -88c-29 0 -52 5 -94 21l17 30c30 -11 48 -15 69 -15c36 0 55 15 55 42c0 26 -20 44 -47 44c-11 0 -19 -2 -32 -7l-9 8l57 91c-68 17 -103 66 -103 145c0 159 143 308 296 308
c61 0 106 -35 106 -82c0 -27 -21 -47 -48 -47c-25 0 -40 14 -40 38c0 10 2 17 9 30c4 10 6 14 6 19c0 13 -14 21 -38 21c-39 0 -80 -18 -110 -49c-58 -60 -94 -152 -94 -238c0 -72 34 -114 92 -114c49 0 89 23 145 82l16 -10c-59 -77 -119 -109 -202 -108z" />
    <glyph glyph-name="egrave" unicode="&#xe8;" horiz-adv-x="444" 
d="M371 111l13 -13c-61 -68 -139 -109 -211 -109c-79 0 -133 56 -133 137c0 153 161 321 308 321c50 0 80 -26 80 -68c0 -87 -108 -165 -261 -186l-28 -4c-9 -37 -11 -47 -11 -63c0 -55 37 -91 94 -91c44 0 76 16 149 76zM164 256l-18 -45c88 22 126 39 164 75
c32 30 51 67 51 100c0 23 -14 38 -35 38c-51 0 -127 -78 -162 -168zM352 499l-141 107c-14 11 -19 20 -19 32c0 20 15 35 36 35c15 0 26 -7 39 -23l116 -151h-31z" />
    <glyph glyph-name="eacute" unicode="&#xe9;" horiz-adv-x="444" 
d="M371 111l13 -13c-61 -68 -139 -109 -211 -109c-79 0 -133 56 -133 137c0 153 161 321 308 321c50 0 80 -26 80 -68c0 -87 -108 -165 -261 -186l-28 -4c-9 -37 -11 -47 -11 -63c0 -55 37 -91 94 -91c44 0 76 16 149 76zM164 256l-18 -45c88 22 126 39 164 75
c32 30 51 67 51 100c0 23 -14 38 -35 38c-51 0 -127 -78 -162 -168zM251 501l165 162c7 7 16 10 25 10c21 0 37 -15 37 -36c0 -13 -5 -21 -17 -29l-175 -107h-35z" />
    <glyph glyph-name="ecircumflex" unicode="&#xea;" horiz-adv-x="444" 
d="M371 111l13 -13c-61 -68 -139 -109 -211 -109c-79 0 -133 56 -133 137c0 153 161 321 308 321c50 0 80 -26 80 -68c0 -87 -108 -165 -261 -186l-28 -4c-9 -37 -11 -47 -11 -63c0 -55 37 -91 94 -91c44 0 76 16 149 76zM164 256l-18 -45c88 22 126 39 164 75
c32 30 51 67 51 100c0 23 -14 38 -35 38c-51 0 -127 -78 -162 -168zM371 670l88 -171h-37l-82 105l-140 -105h-39l160 171h50z" />
    <glyph glyph-name="edieresis" unicode="&#xeb;" horiz-adv-x="444" 
d="M371 111l13 -13c-61 -68 -139 -109 -211 -109c-79 0 -133 56 -133 137c0 153 161 321 308 321c50 0 80 -26 80 -68c0 -87 -108 -165 -261 -186l-28 -4c-9 -37 -11 -47 -11 -63c0 -55 37 -91 94 -91c44 0 76 16 149 76zM164 256l-18 -45c88 22 126 39 164 75
c32 30 51 67 51 100c0 23 -14 38 -35 38c-51 0 -127 -78 -162 -168zM218 614c25 0 48 -24 48 -49c0 -28 -22 -50 -50 -50s-49 22 -49 50c0 27 23 49 51 49zM421 614c25 0 48 -24 48 -49c0 -28 -22 -50 -50 -50s-49 22 -49 50c0 27 23 49 51 49z" />
    <glyph glyph-name="igrave" unicode="&#xec;" horiz-adv-x="278" 
d="M238 116l13 -12c-58 -85 -96 -115 -143 -115c-30 0 -46 20 -46 57c0 20 6 50 24 111l50 179c5 20 9 35 9 45c1 20 -10 24 -64 25v16c40 3 63 7 163 25l3 -2l-92 -326c-2 -8 -5 -16 -7 -22c-6 -19 -10 -34 -10 -45c0 -8 8 -15 16 -15c9 0 24 10 42 28c10 10 16 17 42 51z
M273 499l-142 107c-14 11 -19 20 -19 33c0 19 16 34 36 34c16 0 27 -7 40 -23l116 -151h-31z" />
    <glyph glyph-name="iacute" unicode="&#xed;" horiz-adv-x="278" 
d="M238 116l13 -12c-58 -85 -96 -115 -143 -115c-30 0 -46 20 -46 57c0 20 6 50 24 111l50 179c5 20 9 35 9 45c1 20 -10 24 -64 25v16c40 3 63 7 163 25l3 -2l-92 -326c-2 -8 -5 -16 -7 -22c-6 -19 -10 -34 -10 -45c0 -8 8 -15 16 -15c9 0 24 10 42 28c10 10 16 17 42 51z
M151 501l165 162c7 7 16 10 25 10c21 0 37 -15 37 -36c0 -13 -5 -21 -17 -29l-175 -107h-35z" />
    <glyph glyph-name="icircumflex" unicode="&#xee;" horiz-adv-x="278" 
d="M237 116l14 -12c-59 -85 -96 -115 -144 -115c-30 0 -46 20 -46 57c0 20 5 45 24 111l50 179c6 19 9 37 9 45c0 20 -9 24 -63 25v16c40 3 62 7 162 25l3 -2l-92 -326v-2c-2 -6 -5 -15 -7 -20c-6 -19 -10 -35 -10 -45c0 -8 8 -15 16 -15c9 0 24 10 42 28c11 10 17 17 42 51
zM260 670l88 -171h-36l-83 105l-139 -105h-40l161 171h49z" />
    <glyph glyph-name="idieresis" unicode="&#xef;" horiz-adv-x="278" 
d="M123 614c25 0 48 -24 48 -49c0 -27 -22 -50 -50 -50s-49 22 -49 50c0 27 23 49 51 49zM326 614c25 0 48 -24 48 -49c0 -27 -22 -50 -50 -50s-49 22 -49 50c0 27 23 49 51 49zM238 116l13 -12c-58 -85 -96 -115 -143 -115c-30 0 -46 20 -46 57c0 20 6 50 24 111l50 179
c5 20 9 35 9 45c1 20 -10 24 -64 25v16c40 3 63 7 163 25l3 -2l-92 -326c-2 -8 -5 -16 -7 -22c-6 -19 -10 -34 -10 -45c0 -8 8 -15 16 -15c9 0 24 10 42 28c10 10 16 17 42 51z" />
    <glyph glyph-name="eth" unicode="&#xf0;" 
d="M335 575l-119 -52l-34 30l126 54c-36 34 -62 51 -104 68l35 18c46 -10 83 -29 124 -62l100 43l33 -28l-103 -46c61 -73 85 -139 85 -233c0 -202 -140 -378 -300 -378c-92 0 -148 53 -148 140c0 154 150 318 290 318c38 0 67 -17 84 -50l2 2c-9 70 -31 123 -71 176z
M323 426c-44 0 -87 -30 -127 -88c-50 -71 -81 -163 -81 -238c0 -54 32 -90 78 -90c44 0 83 25 120 79c47 66 81 169 81 243c0 58 -28 94 -71 94z" />
    <glyph glyph-name="ntilde" unicode="&#xf1;" 
d="M479 119l14 -14c-71 -93 -97 -114 -143 -114c-33 0 -47 16 -47 55c0 10 2 19 17 75l46 168c9 33 15 65 15 77c0 18 -9 29 -24 29c-38 0 -90 -50 -151 -144c-46 -69 -55 -91 -104 -251h-76l100 355c2 6 2 9 2 17c0 20 -13 26 -64 28v16c89 16 110 20 164 31l3 -2l-69 -221
c105 162 170 223 235 223c39 0 66 -25 66 -61c0 -15 -4 -37 -10 -59l-59 -209c-15 -56 -15 -56 -15 -63c0 -9 7 -16 16 -16c17 0 28 11 84 80zM471 633h29c-15 -69 -49 -106 -97 -106c-14 0 -32 5 -59 16c-54 22 -78 29 -96 29c-25 0 -41 -15 -52 -48h-29
c21 78 50 108 103 108c23 0 49 -8 86 -25c31 -14 47 -19 63 -19c28 0 40 11 52 45z" />
    <glyph glyph-name="ograve" unicode="&#xf2;" 
d="M331 447c86 0 144 -57 144 -141c0 -76 -42 -163 -109 -229c-60 -58 -125 -88 -192 -88c-92 0 -148 53 -148 141c0 107 74 224 180 283c42 23 81 34 125 34zM319 426c-44 0 -87 -30 -127 -88c-50 -72 -81 -163 -81 -238c0 -54 32 -90 78 -90c44 0 83 25 120 79
c47 67 81 169 81 243c0 58 -28 94 -71 94zM370 499l-141 107c-14 11 -19 20 -19 33c0 19 16 34 36 34c15 0 27 -7 39 -23l117 -151h-32z" />
    <glyph glyph-name="oacute" unicode="&#xf3;" 
d="M331 447c86 0 144 -57 144 -141c0 -76 -42 -163 -110 -229c-59 -58 -124 -88 -191 -88c-92 0 -148 53 -148 141c0 107 74 224 180 283c42 23 81 34 125 34zM319 426c-44 0 -87 -29 -127 -88c-50 -72 -81 -163 -81 -238c0 -54 32 -90 78 -90c44 0 83 25 120 79
c47 67 81 169 81 243c0 58 -28 94 -71 94zM269 501l166 162c6 7 15 10 25 10c21 0 37 -16 37 -36c0 -12 -5 -21 -18 -29l-174 -107h-36z" />
    <glyph glyph-name="ocircumflex" unicode="&#xf4;" 
d="M331 447c86 0 144 -57 144 -141c0 -76 -42 -163 -109 -229c-60 -58 -125 -88 -192 -88c-92 0 -148 53 -148 141c0 107 74 224 180 283c42 23 81 34 125 34zM319 426c-44 0 -87 -30 -127 -88c-50 -72 -81 -163 -81 -238c0 -54 32 -90 78 -90c44 0 83 25 120 79
c47 67 81 169 81 243c0 58 -28 94 -71 94zM378 670l88 -171h-36l-83 105l-140 -105h-39l160 171h50z" />
    <glyph glyph-name="otilde" unicode="&#xf5;" 
d="M331 447c86 0 144 -57 144 -141c0 -76 -42 -163 -109 -229c-60 -58 -125 -88 -192 -88c-92 0 -148 53 -148 141c0 107 74 224 180 283c42 23 81 34 125 34zM319 426c-44 0 -87 -30 -127 -88c-50 -72 -81 -163 -81 -238c0 -54 32 -90 78 -90c44 0 83 25 120 79
c47 67 81 169 81 243c0 58 -28 94 -71 94zM477 633h29c-15 -69 -49 -106 -97 -106c-13 0 -32 5 -59 16c-54 22 -78 29 -96 29c-25 0 -42 -15 -51 -48h-30c21 78 50 108 103 108c22 0 49 -8 86 -25c31 -14 47 -19 63 -19c28 0 40 11 52 45z" />
    <glyph glyph-name="odieresis" unicode="&#xf6;" 
d="M331 447c86 0 144 -57 144 -141c0 -76 -42 -163 -109 -229c-60 -58 -125 -88 -192 -88c-92 0 -148 53 -148 141c0 107 74 224 180 283c42 23 81 34 125 34zM319 426c-44 0 -87 -30 -127 -88c-50 -71 -81 -163 -81 -238c0 -54 32 -90 78 -90c44 0 83 25 120 79
c47 66 81 169 81 243c0 58 -28 94 -71 94zM247 614c25 0 48 -24 48 -49c0 -28 -22 -50 -50 -50s-49 22 -49 50c0 27 23 49 51 49zM450 614c25 0 48 -24 48 -49c0 -28 -22 -50 -50 -50s-49 22 -49 50c0 27 23 49 51 49z" />
    <glyph glyph-name="divide" unicode="&#xf7;" horiz-adv-x="675" 
d="M611 283h-498v54h498v-54zM363 148c28 0 51 -24 51 -51s-23 -48 -51 -48c-26 0 -48 23 -48 49c0 27 22 50 48 50zM359 571c28 0 51 -24 51 -52c0 -25 -23 -47 -50 -47s-49 22 -49 49s22 50 48 50z" />
    <glyph glyph-name="oslash" unicode="&#xf8;" 
d="M436 562l-60 -121c41 -12 61 -26 78 -57c13 -22 21 -53 21 -80c0 -77 -46 -169 -117 -235c-58 -53 -119 -80 -182 -80c-8 0 -14 0 -20 2l-63 -128h-36l66 133c-31 10 -44 18 -60 35c-23 25 -36 60 -36 99c0 156 154 317 302 317c5 0 10 0 16 -1l56 116h35zM140 29
l193 395c-4 1 -7 2 -10 2c-34 0 -69 -17 -97 -46c-67 -72 -114 -187 -114 -282c0 -28 9 -49 28 -69zM363 412l-196 -398c8 -3 13 -4 22 -4c45 0 83 24 121 78c46 67 80 169 80 242c0 36 -8 61 -27 82z" />
    <glyph glyph-name="ugrave" unicode="&#xf9;" 
d="M474 119l15 -9c-71 -100 -94 -119 -141 -119c-31 0 -49 17 -49 48c0 22 16 89 48 200c-119 -195 -172 -250 -244 -250c-36 0 -54 18 -54 55c0 18 7 51 27 125l38 144c10 35 15 60 15 68c0 7 -5 16 -10 19c-10 5 -10 5 -51 6v14c60 7 97 14 153 27l3 -2l-96 -368l-1 -9
c-1 -14 8 -25 21 -25c33 0 83 51 144 148c48 74 55 90 114 247h75l-82 -303c-21 -74 -21 -74 -21 -80c0 -10 4 -16 11 -16c17 0 31 13 85 80zM379 499l-141 107c-14 10 -19 20 -19 33c0 19 15 34 36 34c15 0 26 -7 39 -23l116 -151h-31z" />
    <glyph glyph-name="uacute" unicode="&#xfa;" 
d="M474 119l15 -9c-71 -100 -94 -119 -141 -119c-31 0 -49 17 -49 48c0 21 16 88 48 200c-119 -195 -172 -250 -244 -250c-36 0 -54 18 -54 55c0 18 7 52 27 125l38 144c9 35 15 61 15 68s-5 16 -10 19c-10 5 -10 5 -51 6v14c60 7 97 14 153 27l3 -2l-96 -368l-1 -9
c0 -15 8 -25 21 -25c33 0 83 51 144 148c48 74 55 90 114 247h75l-83 -303c-20 -74 -20 -74 -20 -80c0 -10 4 -16 11 -16c17 0 31 13 85 80zM285 501l166 162c6 7 15 10 25 10c21 0 37 -16 37 -36c0 -13 -5 -21 -18 -29l-174 -107h-36z" />
    <glyph glyph-name="ucircumflex" unicode="&#xfb;" 
d="M474 119l15 -9c-71 -100 -94 -119 -141 -119c-31 0 -49 17 -49 48c0 22 16 89 48 200c-119 -195 -172 -250 -244 -250c-36 0 -54 18 -54 55c0 18 7 51 27 125l38 144c10 35 15 60 15 68c0 7 -5 16 -10 19c-10 5 -10 5 -51 6v14c60 7 97 14 153 27l3 -2l-96 -368l-1 -9
c-1 -14 8 -25 21 -25c33 0 83 51 144 148c48 74 55 90 114 247h75l-82 -303c-21 -74 -21 -74 -21 -80c0 -10 4 -16 11 -16c17 0 31 13 85 80zM372 670l88 -171h-36l-82 105l-140 -105h-40l161 171h49z" />
    <glyph glyph-name="udieresis" unicode="&#xfc;" 
d="M474 119l15 -9c-71 -100 -94 -119 -141 -119c-31 0 -49 17 -49 48c0 21 16 88 48 200c-119 -195 -172 -250 -244 -250c-36 0 -54 18 -54 55c0 18 7 52 27 125l38 144c9 35 15 61 15 68s-5 16 -10 19c-10 5 -10 5 -51 6v14c60 7 97 14 153 27l3 -2l-96 -368l-1 -9
c0 -15 8 -25 21 -25c33 0 83 51 144 148c48 74 55 90 114 247h75l-83 -303c-20 -74 -20 -74 -20 -80c0 -10 4 -16 11 -16c17 0 31 13 85 80zM245 614c25 0 48 -24 48 -49c0 -27 -23 -50 -50 -50c-28 0 -49 22 -49 50c0 27 23 49 51 49zM448 614c25 0 48 -24 48 -49
c0 -27 -23 -50 -50 -50c-28 0 -49 22 -49 50c0 27 23 49 51 49z" />
    <glyph glyph-name="yacute" unicode="&#xfd;" horiz-adv-x="444" 
d="M24 406v17c15 2 28 5 32 5c55 10 92 17 100 18c5 0 8 0 9 1h4c15 0 71 -166 86 -256l19 -118c87 142 126 222 126 263c0 14 -7 23 -26 34c-21 13 -29 23 -29 39c0 23 16 38 40 38c31 0 56 -25 56 -56c0 -49 -29 -122 -99 -247c-113 -202 -245 -353 -311 -353
c-30 0 -51 18 -51 44c0 23 17 40 40 40c12 0 23 -5 38 -17c11 -8 17 -11 23 -11c14 0 26 8 47 31c11 11 32 36 64 79c15 20 22 35 22 51c0 41 -49 250 -78 331c-19 54 -38 71 -80 71c-11 0 -19 -1 -32 -4zM249 501l165 162c7 6 16 10 25 10c21 0 37 -15 37 -36
c0 -13 -5 -21 -18 -29l-174 -107h-35z" />
    <glyph glyph-name="thorn" unicode="&#xfe;" 
d="M137 -193v-15h-208v16c44 1 58 14 68 60c32 119 85 315 120 440c46 164 59 212 70 253c1 6 3 12 6 20c6 23 9 35 9 44c0 22 -6 25 -65 27v17c67 8 103 14 154 24l5 -6c-6 -22 -9 -33 -10 -39c-56 -211 -78 -289 -85 -308l2 -2c47 73 101 109 166 109
c73 0 116 -47 116 -126c0 -161 -158 -332 -307 -332c-24 0 -41 4 -67 17c-24 -86 -39 -153 -39 -168c0 -22 17 -30 65 -31zM332 403c-55 0 -110 -46 -138 -116c-31 -76 -68 -208 -68 -242c0 -22 20 -37 49 -37c52 0 101 31 144 91c45 64 75 151 75 220c0 56 -21 84 -62 84z
" />
    <glyph glyph-name="ydieresis" unicode="&#xff;" horiz-adv-x="444" 
d="M24 406v17c15 2 28 5 32 5c55 10 92 17 100 18c5 0 8 0 9 1h4c15 0 71 -166 86 -256l19 -118c87 142 126 222 126 263c0 14 -7 23 -26 34c-21 13 -29 23 -29 39c0 23 16 38 40 38c31 0 56 -25 56 -56c0 -49 -29 -122 -99 -247c-113 -202 -245 -353 -311 -353
c-30 0 -51 18 -51 44c0 23 17 40 40 40c12 0 23 -5 38 -17c11 -8 17 -11 23 -11c14 0 26 8 47 31c11 11 32 36 64 79c15 20 22 35 22 51c0 41 -49 250 -78 331c-19 54 -38 71 -80 71c-11 0 -19 -1 -32 -4zM180 614c25 0 48 -24 48 -49c0 -27 -23 -50 -50 -50
c-28 0 -49 22 -49 50c0 27 23 49 51 49zM382 614c25 0 48 -24 48 -49c0 -27 -23 -50 -50 -50c-28 0 -49 22 -49 50c0 27 23 49 51 49z" />
    <glyph glyph-name="Amacron" unicode="&#x100;" horiz-adv-x="611" 
d="M584 16v-16h-250v16c65 6 79 15 79 51c0 8 -1 19 -3 29l-21 133h-223l-57 -114c-18 -37 -20 -43 -20 -62c0 -27 8 -31 61 -37v-16h-190v16c41 8 51 20 129 154l290 508h26l101 -575c13 -74 20 -82 78 -87zM187 266h197l-48 264zM562 806l-11 -52h-305l11 52h305z" />
    <glyph glyph-name="amacron" unicode="&#x101;" 
d="M478 112l12 -11c-77 -92 -101 -111 -142 -111c-28 0 -40 12 -40 41c0 26 2 34 25 117c-91 -125 -134 -159 -206 -159c-64 0 -102 41 -102 111c0 160 158 347 293 347c44 0 73 -21 81 -58l11 48l3 3l62 7l7 -3c-2 -9 -3 -11 -6 -21c-48 -168 -94 -348 -94 -368
c0 -7 6 -13 14 -13c10 0 23 10 53 41c7 7 14 13 29 29zM324 425c-42 3 -89 -30 -130 -88c-45 -65 -84 -168 -84 -224c0 -46 22 -74 59 -74c29 0 63 17 88 44c70 76 123 197 123 281c0 35 -22 59 -56 61zM513 591l-11 -52h-306l12 52h305z" />
    <glyph glyph-name="Abreve" unicode="&#x102;" horiz-adv-x="611" 
d="M584 16v-16h-250v16c65 6 79 15 79 51c0 8 -1 19 -3 29l-21 133h-223l-57 -114c-18 -37 -20 -43 -20 -62c0 -27 8 -31 61 -37v-16h-190v16c41 8 51 20 129 154l290 508h26l101 -575c13 -74 20 -82 78 -87zM187 266h197l-48 264zM539 874h29c-20 -101 -83 -160 -171 -160
c-46 0 -81 15 -104 45c-21 26 -29 57 -30 115h30c5 -63 45 -100 110 -100c62 0 111 36 136 100z" />
    <glyph glyph-name="abreve" unicode="&#x103;" 
d="M478 112l12 -11c-77 -92 -101 -111 -142 -111c-28 0 -40 12 -40 41c0 26 2 34 25 117c-91 -125 -134 -159 -206 -159c-64 0 -102 41 -102 111c0 161 158 347 293 347c44 0 73 -21 81 -58l11 48l3 3l62 7l7 -3c-2 -9 -3 -11 -6 -21c-48 -168 -94 -348 -94 -368
c0 -7 6 -13 14 -13c10 0 23 10 53 41c7 7 14 13 29 29zM324 425c-42 3 -89 -30 -130 -88c-45 -65 -84 -168 -84 -224c0 -46 22 -74 59 -74c29 0 63 17 88 44c70 76 123 197 123 281c0 35 -22 59 -56 61zM491 659h30c-23 -101 -87 -160 -175 -160c-45 0 -80 15 -103 45
c-20 26 -27 57 -27 115h29c4 -64 44 -100 110 -100c61 0 111 37 136 100z" />
    <glyph glyph-name="Aogonek" unicode="&#x104;" horiz-adv-x="611" 
d="M389 229h-223l-57 -114c-18 -37 -20 -43 -20 -62c0 -27 8 -31 61 -37v-16h-190v16c41 8 51 20 129 154l290 508h26l101 -575c13 -74 20 -82 78 -87v-16c-12 -11 -17 -27 -17 -49c0 -36 23 -58 61 -58c32 0 57 9 84 32l18 -18c-35 -52 -77 -78 -127 -78
c-53 0 -97 44 -97 98c0 28 6 43 28 73h-200v16c65 6 79 15 79 51c0 8 -1 19 -3 29zM187 266h197l-48 264z" />
    <glyph glyph-name="aogonek" unicode="&#x105;" 
d="M478 112l12 -11c-50 -61 -79 -90 -106 -104c-24 -14 -32 -25 -32 -50c0 -33 23 -54 60 -54c32 0 56 9 84 32l17 -18c-36 -52 -78 -78 -127 -78c-53 0 -96 43 -96 95c0 27 8 49 28 76c-8 8 -10 15 -10 31c0 26 2 34 25 117c-91 -125 -134 -159 -206 -159
c-64 0 -102 41 -102 111c0 160 158 347 293 347c44 0 73 -21 81 -58l11 48l3 3l62 7l7 -3c-2 -9 -3 -11 -6 -21c-48 -168 -94 -348 -94 -368c0 -7 6 -13 14 -13c10 0 23 10 53 41c7 7 14 13 29 29zM324 425c-42 3 -89 -30 -130 -88c-45 -65 -84 -168 -84 -224
c0 -46 22 -74 59 -74c29 0 63 17 88 44c70 76 123 197 123 281c0 35 -22 59 -56 61z" />
    <glyph glyph-name="Cacute" unicode="&#x106;" horiz-adv-x="667" 
d="M668 472l-18 3c-11 108 -63 163 -157 163c-67 0 -130 -28 -178 -77c-78 -81 -125 -202 -125 -321c0 -134 65 -212 179 -212c84 0 141 29 232 119l18 -14c-91 -107 -171 -151 -275 -151c-157 0 -268 111 -268 268c0 224 192 425 408 425c34 0 74 -6 119 -17
c21 -5 32 -7 41 -7c20 0 31 6 38 22h22zM428 716l162 162c7 7 15 10 25 10c21 0 37 -16 37 -36c0 -13 -5 -21 -17 -28l-172 -108h-35z" />
    <glyph glyph-name="cacute" unicode="&#x107;" horiz-adv-x="444" 
d="M369 107l16 -10c-61 -77 -116 -108 -193 -108c-93 0 -147 55 -147 150c0 159 143 308 296 308c61 0 106 -35 106 -82c0 -27 -21 -47 -48 -47c-25 0 -40 14 -40 38c0 10 2 17 9 30c5 10 6 14 6 19c0 13 -14 21 -38 21c-40 0 -80 -18 -110 -49c-58 -60 -94 -152 -94 -238
c0 -72 34 -114 92 -114c49 0 89 23 145 82zM256 501l165 162c7 7 16 10 25 10c21 0 37 -15 37 -36c0 -13 -5 -21 -18 -29l-174 -107h-35z" />
    <glyph glyph-name="Ccircumflex" unicode="&#x108;" horiz-adv-x="667" 
d="M689 472l-18 3c-11 108 -63 163 -157 163c-67 0 -130 -28 -178 -77c-78 -81 -125 -202 -125 -321c0 -134 65 -212 179 -212c84 0 141 29 232 119l18 -14c-91 -107 -171 -151 -275 -151c-157 0 -268 111 -268 268c0 224 192 425 408 425c34 0 74 -6 119 -17
c21 -5 32 -7 41 -7c20 0 31 6 38 22h22zM578 885l91 -171h-37l-84 105l-138 -105h-39l157 171h50z" />
    <glyph glyph-name="ccircumflex" unicode="&#x109;" horiz-adv-x="444" 
d="M369 107l16 -10c-61 -77 -116 -108 -193 -108c-93 0 -147 55 -147 150c0 159 143 308 296 308c61 0 106 -35 106 -82c0 -27 -21 -47 -48 -47c-25 0 -40 14 -40 38c0 10 2 17 9 30c5 10 6 14 6 19c0 13 -14 21 -38 21c-40 0 -80 -18 -110 -49c-58 -60 -94 -152 -94 -238
c0 -72 34 -114 92 -114c49 0 89 23 145 82zM382 670l88 -171h-37l-82 105l-140 -105h-39l160 171h50z" />
    <glyph glyph-name="Cdotaccent" unicode="&#x10a;" horiz-adv-x="667" 
d="M605 162l12 -8c-67 -104 -160 -163 -256 -163c-149 0 -258 116 -258 274c0 118 66 240 176 328c69 55 148 84 227 84c34 0 80 -7 119 -18c16 -5 20 -6 29 -6c18 0 31 6 43 20h16l-48 -209h-17c4 22 5 33 5 46c0 82 -55 136 -137 136c-156 0 -308 -201 -308 -407
c0 -120 80 -205 192 -205c73 0 144 44 205 128zM531 842c31 0 57 -26 57 -57c0 -32 -25 -57 -57 -57s-57 26 -57 58c0 31 25 56 57 56z" />
    <glyph glyph-name="cdotaccent" unicode="&#x10b;" horiz-adv-x="444" 
d="M369 107l16 -10c-61 -77 -116 -108 -193 -108c-93 0 -147 55 -147 150c0 159 143 308 296 308c61 0 106 -35 106 -82c0 -27 -21 -47 -48 -47c-25 0 -40 14 -40 38c0 10 2 17 9 30c5 10 6 14 6 19c0 13 -14 21 -38 21c-40 0 -80 -18 -110 -49c-58 -60 -94 -152 -94 -238
c0 -72 34 -114 92 -114c49 0 89 23 145 82zM355 614c25 0 48 -24 48 -49c0 -27 -23 -50 -50 -50c-28 0 -49 22 -49 50c0 27 23 49 51 49z" />
    <glyph glyph-name="Ccaron" unicode="&#x10c;" horiz-adv-x="667" 
d="M668 472l-18 3c-11 108 -63 163 -157 163c-67 0 -130 -28 -178 -77c-78 -81 -125 -202 -125 -321c0 -134 65 -212 179 -212c84 0 141 29 232 119l18 -14c-91 -107 -171 -151 -275 -151c-157 0 -268 111 -268 268c0 224 192 425 408 425c34 0 74 -6 119 -17
c21 -5 32 -7 41 -7c20 0 31 6 38 22h22zM693 885l-164 -171h-46l-99 171h37l93 -106l143 106h36z" />
    <glyph glyph-name="ccaron" unicode="&#x10d;" horiz-adv-x="444" 
d="M369 107l16 -10c-61 -77 -116 -108 -193 -108c-93 0 -147 55 -147 150c0 159 143 308 296 308c61 0 106 -35 106 -82c0 -27 -21 -47 -48 -47c-25 0 -40 14 -40 38c0 10 2 17 9 30c5 10 6 14 6 19c0 13 -14 21 -38 21c-40 0 -80 -18 -110 -49c-58 -60 -94 -152 -94 -238
c0 -72 34 -114 92 -114c49 0 89 23 145 82zM512 670l-166 -171h-47l-96 171h38l90 -106l145 106h36z" />
    <glyph glyph-name="Dcaron" unicode="&#x10e;" horiz-adv-x="722" 
d="M137 646v16h282c182 0 298 -107 298 -276c0 -117 -57 -227 -153 -298c-78 -57 -185 -88 -304 -88h-257v16c57 10 64 16 81 75l121 449c6 24 10 47 10 64c0 28 -15 36 -78 42zM323 603l-119 -439c-17 -63 -21 -83 -21 -96c0 -27 19 -38 66 -38c106 0 187 30 247 91
c67 69 108 180 108 290c0 81 -28 147 -79 184c-32 24 -83 37 -141 37c-40 0 -55 -7 -61 -29zM603 885l-164 -171h-47l-99 171h38l92 -106l143 106h37z" />
    <glyph glyph-name="dcaron" unicode="&#x10f;" horiz-adv-x="544" 
d="M562 442l-9 17c53 35 77 63 77 90c0 10 -5 19 -20 33c-19 17 -25 27 -25 45c0 28 22 48 52 48c33 0 58 -31 58 -71c0 -58 -46 -114 -133 -162zM479 113l12 -11c-52 -73 -106 -115 -149 -115c-25 0 -42 18 -42 45c0 23 3 39 15 90c-71 -100 -116 -133 -184 -133
c-67 0 -106 42 -106 114c0 152 167 344 299 344c40 0 57 -16 65 -59l46 167c16 56 16 57 16 70c0 22 -6 25 -63 27v17c64 6 101 12 156 24l5 -6c-57 -215 -79 -294 -104 -376c-35 -114 -68 -234 -68 -250c0 -11 8 -20 18 -20c18 0 27 8 84 72zM328 424
c-29 2 -67 -17 -95 -47c-68 -71 -120 -190 -120 -272c0 -41 23 -67 59 -67c28 0 59 15 85 42c68 72 116 189 116 287c0 36 -15 55 -45 57z" />
    <glyph glyph-name="Dcroat" unicode="&#x110;" horiz-adv-x="722" 
d="M57 330l12 43h91l45 167c6 24 10 47 10 64c0 28 -14 36 -78 42v16h282c182 0 298 -107 298 -276c0 -117 -57 -227 -153 -298c-78 -57 -185 -88 -304 -88h-257v16c57 10 64 16 81 75l64 239h-91zM416 373l-11 -43h-156l-45 -166c-16 -59 -21 -84 -21 -96
c0 -27 19 -38 66 -38c105 0 187 30 247 91c67 69 108 179 108 290c0 80 -28 147 -79 184c-32 24 -82 37 -137 37c-44 0 -59 -7 -65 -29l-62 -230h155z" />
    <glyph glyph-name="dcroat" unicode="&#x111;" 
d="M429 551h-168l8 36h170c5 19 7 27 7 38c0 22 -6 25 -63 27v17c64 6 101 12 156 23l5 -5l-27 -100h57l-8 -36h-58l-8 -29c-24 -90 -42 -152 -60 -212c-35 -111 -68 -233 -68 -249c0 -11 8 -20 18 -20c18 0 27 8 84 72l12 -11c-52 -73 -106 -115 -149 -115
c-25 0 -42 18 -42 45c0 23 3 39 15 90c-71 -100 -116 -133 -184 -133c-67 0 -106 42 -106 114c0 153 166 344 299 344c40 0 57 -16 65 -59zM323 424c-29 2 -67 -17 -95 -47c-68 -71 -120 -190 -120 -272c0 -41 23 -67 59 -67c28 0 59 15 85 42c68 72 116 189 116 287
c0 36 -15 55 -45 57z" />
    <glyph glyph-name="Emacron" unicode="&#x112;" horiz-adv-x="611" 
d="M649 662l-30 -155l-21 2c1 17 1 29 1 45c0 61 -35 75 -195 75c-58 0 -68 -4 -74 -26l-65 -237c36 1 68 2 81 2c91 4 101 10 138 97l19 -5l-67 -235l-20 5c5 23 6 33 6 51c0 21 -2 29 -11 36c-8 7 -32 11 -61 12l-46 1l-48 3c-13 -51 -26 -102 -31 -117
c-24 -88 -35 -136 -35 -149c0 -24 24 -34 80 -34c78 0 146 10 183 28c44 20 71 46 117 111l17 -8l-62 -164h-514v16c57 10 64 17 81 75l121 449c6 22 11 52 11 64c0 28 -15 36 -79 42v16h504zM594 806l-11 -52h-305l11 52h305z" />
    <glyph glyph-name="emacron" unicode="&#x113;" horiz-adv-x="444" 
d="M371 111l13 -13c-61 -68 -139 -109 -211 -109c-79 0 -133 56 -133 137c0 153 161 321 308 321c50 0 80 -26 80 -68c0 -87 -108 -165 -261 -186l-28 -4c-9 -37 -11 -47 -11 -63c0 -55 37 -91 94 -91c44 0 76 16 149 76zM164 256l-18 -45c88 22 126 39 164 75
c32 30 51 67 51 100c0 23 -14 38 -35 38c-51 0 -127 -78 -162 -168zM485 591l-11 -52h-305l11 52h305z" />
    <glyph glyph-name="Ebreve" unicode="&#x114;" horiz-adv-x="611" 
d="M649 662l-30 -155l-21 2c1 17 1 29 1 45c0 61 -35 75 -195 75c-58 0 -68 -4 -74 -26l-65 -237c36 1 68 2 81 2c91 4 101 10 138 97l19 -5l-67 -235l-20 5c5 23 6 33 6 51c0 21 -2 29 -11 36c-8 7 -32 11 -61 12l-46 1l-48 3c-13 -51 -26 -102 -31 -117
c-24 -88 -35 -136 -35 -149c0 -24 24 -34 80 -34c78 0 146 10 183 28c44 20 71 46 117 111l17 -8l-62 -164h-514v16c57 10 64 17 81 75l121 449c6 22 11 52 11 64c0 28 -15 36 -79 42v16h504zM580 874h29c-21 -101 -83 -160 -171 -160c-46 0 -81 15 -104 45
c-21 26 -29 57 -30 115h29c6 -63 46 -100 111 -100c62 0 111 36 136 100z" />
    <glyph glyph-name="ebreve" unicode="&#x115;" horiz-adv-x="444" 
d="M371 111l13 -13c-61 -68 -139 -109 -211 -109c-79 0 -133 56 -133 137c0 153 161 321 308 321c50 0 80 -26 80 -68c0 -87 -108 -165 -261 -186l-28 -4c-9 -37 -11 -47 -11 -63c0 -55 37 -91 94 -91c44 0 76 16 149 76zM164 256l-18 -45c88 22 126 39 164 75
c32 30 51 67 51 100c0 23 -14 38 -35 38c-51 0 -127 -78 -162 -168zM464 659h29c-22 -101 -86 -160 -174 -160c-46 0 -81 15 -104 45c-20 26 -27 57 -27 115h29c4 -63 44 -100 109 -100c62 0 112 36 138 100z" />
    <glyph glyph-name="Edotaccent" unicode="&#x116;" horiz-adv-x="611" 
d="M649 662l-30 -155l-21 2c1 17 1 29 1 45c0 61 -35 75 -195 75c-58 0 -68 -4 -74 -26l-65 -237c36 1 68 2 81 2c91 4 101 10 138 97l19 -5l-67 -235l-20 5c5 23 6 33 6 51c0 21 -2 29 -11 36c-8 7 -32 11 -61 12l-46 1l-48 3c-13 -51 -26 -102 -31 -117
c-24 -88 -35 -136 -35 -149c0 -24 24 -34 80 -34c78 0 146 10 183 28c44 20 71 46 117 111l17 -8l-62 -164h-514v16c57 10 64 17 81 75l121 449c6 22 11 52 11 64c0 28 -15 36 -79 42v16h504zM446 829c25 0 49 -24 49 -50c0 -27 -22 -49 -49 -49c-28 0 -50 22 -50 51
c0 27 22 48 50 48z" />
    <glyph glyph-name="edotaccent" unicode="&#x117;" horiz-adv-x="444" 
d="M371 111l13 -13c-61 -68 -139 -109 -211 -109c-79 0 -133 56 -133 137c0 153 161 321 308 321c50 0 80 -26 80 -68c0 -87 -108 -165 -261 -186l-28 -4c-9 -37 -11 -47 -11 -63c0 -55 37 -91 94 -91c44 0 76 16 149 76zM164 256l-18 -45c88 22 126 39 164 75
c32 30 51 67 51 100c0 23 -14 38 -35 38c-51 0 -127 -78 -162 -168zM329 614c25 0 48 -24 48 -49c0 -28 -22 -50 -50 -50s-49 22 -49 50c0 27 23 49 51 49z" />
    <glyph glyph-name="Eogonek" unicode="&#x118;" horiz-adv-x="611" 
d="M587 164l-62 -164c-8 -21 -13 -44 -13 -56c0 -30 25 -51 61 -51c31 0 55 9 83 32l17 -18c-35 -52 -77 -78 -126 -78c-54 0 -97 44 -97 99c0 28 6 44 28 72h-467v16c57 10 64 17 81 75l121 449c6 22 11 52 11 64c0 28 -15 36 -79 42v16h504l-30 -155l-21 2c1 17 1 29 1 45
c0 61 -35 75 -195 75c-58 0 -68 -4 -74 -26l-65 -237c36 1 68 2 81 2c91 4 101 10 138 97l19 -5l-67 -235l-20 5c5 23 6 33 6 51c0 21 -2 29 -11 36c-8 7 -32 11 -61 12l-46 1l-48 3c-13 -51 -26 -102 -31 -117c-24 -88 -35 -136 -35 -149c0 -24 24 -34 80 -34
c78 0 146 10 183 28c44 20 71 46 117 111z" />
    <glyph glyph-name="eogonek" unicode="&#x119;" horiz-adv-x="444" 
d="M371 111l13 -13l-17 -17c-54 -60 -71 -91 -71 -135c0 -32 24 -53 60 -53c32 0 56 9 84 32l17 -18c-36 -52 -78 -78 -127 -78c-53 0 -96 43 -96 94c0 34 12 61 40 91c-38 -18 -66 -25 -100 -25c-80 0 -134 56 -134 137c0 153 161 321 308 321c50 0 80 -26 80 -68
c0 -87 -108 -165 -261 -186l-28 -4c-9 -37 -11 -47 -11 -63c0 -55 37 -91 94 -91c44 0 76 16 149 76zM164 256l-18 -45c88 22 126 39 164 75c32 30 51 67 51 100c0 23 -14 38 -35 38c-51 0 -127 -78 -162 -168z" />
    <glyph glyph-name="Ecaron" unicode="&#x11a;" horiz-adv-x="611" 
d="M649 662l-30 -155l-21 2c1 17 1 29 1 45c0 61 -35 75 -195 75c-58 0 -68 -4 -74 -26l-65 -237c36 1 68 2 81 2c91 4 101 10 138 97l19 -5l-67 -235l-20 5c5 23 6 33 6 51c0 21 -2 29 -11 36c-8 7 -32 11 -61 12l-46 1l-48 3c-13 -51 -26 -102 -31 -117
c-24 -88 -35 -136 -35 -149c0 -24 24 -34 80 -34c78 0 146 10 183 28c44 20 71 46 117 111l17 -8l-62 -164h-514v16c57 10 64 17 81 75l121 449c6 22 11 52 11 64c0 28 -15 36 -79 42v16h504zM617 885l-163 -171h-47l-99 171h38l92 -106l143 106h36z" />
    <glyph glyph-name="ecaron" unicode="&#x11b;" horiz-adv-x="444" 
d="M371 111l13 -13c-61 -68 -139 -109 -211 -109c-79 0 -133 56 -133 137c0 153 161 321 308 321c50 0 80 -26 80 -68c0 -87 -108 -165 -261 -186l-28 -4c-9 -37 -11 -47 -11 -63c0 -55 37 -91 94 -91c44 0 76 16 149 76zM164 256l-18 -45c88 22 126 39 164 75
c32 30 51 67 51 100c0 23 -14 38 -35 38c-51 0 -127 -78 -162 -168zM513 670l-167 -171h-46l-96 171h37l91 -106l145 106h36z" />
    <glyph glyph-name="Gcircumflex" unicode="&#x11c;" horiz-adv-x="722" 
d="M734 671l-48 -200l-18 3c-5 45 -12 67 -29 93c-31 46 -87 74 -153 74s-130 -27 -175 -75c-77 -83 -126 -212 -126 -334c0 -136 74 -212 207 -212c46 0 84 12 106 34c12 13 17 24 37 93c20 70 27 103 27 125s-13 28 -80 35v16h270v-16c-66 -5 -82 -16 -98 -73l-48 -189
c-78 -44 -150 -63 -239 -63c-88 0 -163 27 -215 79c-49 49 -79 121 -79 191c0 223 192 423 405 423c42 0 86 -8 136 -24c23 -8 34 -10 44 -10c27 0 43 9 61 34zM563 885l91 -171h-36l-85 105l-138 -105h-39l158 171h49z" />
    <glyph glyph-name="gcircumflex" unicode="&#x11d;" 
d="M481 411l-1 -40h-50c5 -20 8 -39 8 -56c0 -79 -96 -162 -188 -162c-11 0 -23 1 -32 3c-3 1 -5 1 -7 1c-14 0 -37 -27 -37 -42s26 -31 70 -42c97 -26 145 -70 145 -133c0 -89 -86 -149 -213 -149c-104 0 -170 44 -170 114c0 48 19 69 120 134c-19 15 -27 26 -27 40
c0 24 18 44 78 85c-57 27 -79 56 -79 109c0 96 92 174 205 174c39 0 72 -10 100 -28c8 -6 13 -8 16 -8h62zM183 17l-29 9c-2 1 -4 2 -5 2c-8 0 -51 -33 -65 -51c-16 -19 -22 -37 -22 -62c0 -64 47 -102 128 -102c79 0 138 41 138 96c0 47 -36 73 -145 108zM302 425
c-67 0 -125 -82 -125 -176c0 -47 22 -75 60 -75c35 0 66 22 89 64c20 35 32 79 32 116c0 47 -19 71 -56 71zM374 670l87 -171h-36l-82 105l-140 -105h-40l161 171h50z" />
    <glyph glyph-name="Gbreve" unicode="&#x11e;" horiz-adv-x="722" 
d="M723 671l-48 -200l-18 3c-5 45 -12 67 -29 93c-31 46 -87 74 -153 74s-130 -27 -175 -75c-77 -83 -126 -212 -126 -334c0 -136 74 -212 207 -212c46 0 84 12 106 34c12 13 17 24 37 93c20 70 27 103 27 125s-13 28 -80 35v16h270v-16c-66 -5 -82 -16 -98 -73l-48 -189
c-78 -44 -150 -63 -239 -63c-88 0 -163 27 -215 79c-49 49 -79 121 -79 191c0 223 192 423 405 423c42 0 86 -8 136 -24c23 -8 34 -10 44 -10c27 0 43 9 61 34zM636 874h29c-21 -101 -84 -160 -172 -160c-45 0 -80 15 -104 45c-20 26 -28 57 -29 115h29
c5 -63 46 -100 111 -100c62 0 111 36 136 100z" />
    <glyph glyph-name="gbreve" unicode="&#x11f;" 
d="M481 411l-1 -40h-50c5 -20 8 -39 8 -56c0 -79 -96 -162 -188 -162c-11 0 -23 1 -32 3c-3 1 -5 1 -7 1c-14 0 -37 -27 -37 -42s26 -31 70 -42c97 -26 145 -70 145 -133c0 -89 -86 -149 -213 -149c-104 0 -170 44 -170 114c0 48 19 69 120 134c-19 15 -27 26 -27 40
c0 24 18 44 78 85c-57 27 -79 56 -79 109c0 96 92 174 205 174c39 0 72 -10 100 -28c8 -6 13 -8 16 -8h62zM183 17l-29 9c-2 1 -4 2 -5 2c-8 0 -51 -33 -65 -51c-16 -19 -22 -37 -22 -62c0 -64 47 -102 128 -102c79 0 138 41 138 96c0 47 -36 73 -145 108zM302 425
c-67 0 -125 -82 -125 -176c0 -47 22 -75 60 -75c35 0 66 22 89 64c20 35 32 79 32 116c0 47 -19 71 -56 71zM471 659h30c-10 -42 -19 -64 -39 -91c-35 -45 -82 -69 -136 -69c-45 0 -80 15 -103 45c-20 26 -27 57 -28 115h30c4 -64 44 -100 109 -100c62 0 112 37 137 100z
" />
    <glyph glyph-name="Gdotaccent" unicode="&#x120;" horiz-adv-x="722" 
d="M714 671l-45 -205h-19c6 31 8 42 8 53c0 73 -60 123 -147 123c-91 0 -167 -53 -221 -152c-42 -78 -70 -188 -70 -275c0 -55 18 -110 45 -141c26 -29 71 -49 113 -49c29 0 59 7 90 21l53 192c4 15 7 31 7 41c0 17 -9 31 -25 37c-11 3 -26 5 -54 5h-9l5 18h271l-5 -18
c-57 -2 -78 -21 -95 -88l-56 -200c-70 -29 -131 -44 -183 -44c-154 0 -258 107 -258 264c0 226 181 422 389 422c48 0 71 -5 128 -27c8 -3 14 -5 19 -5c15 0 30 10 43 28h16zM525 842c31 0 57 -26 57 -57c0 -32 -25 -57 -56 -57c-32 0 -58 26 -58 58c0 31 25 56 57 56z" />
    <glyph glyph-name="gdotaccent" unicode="&#x121;" 
d="M497 412l-17 -55h-66c6 -21 8 -31 8 -43c0 -66 -50 -128 -122 -151c-20 -7 -31 -8 -62 -8c-49 -16 -69 -31 -69 -52c0 -12 17 -19 79 -33c70 -14 88 -21 114 -42c23 -19 34 -42 34 -68c0 -80 -86 -136 -208 -136c-53 0 -95 8 -125 24c-29 16 -49 45 -49 73
c0 36 16 53 106 116c-16 14 -21 25 -21 40c0 30 22 52 85 84c-60 22 -89 59 -89 114c0 47 23 88 68 121c39 29 85 45 125 45c30 0 55 -8 89 -29h120zM287 409c-57 0 -110 -75 -110 -155c0 -46 22 -74 58 -74c24 0 47 12 63 32c23 29 44 92 44 131c0 43 -19 66 -55 66z
M143 23c-42 -27 -66 -62 -66 -95c0 -44 50 -75 123 -75c75 0 134 34 134 77c0 21 -14 38 -40 51c-27 12 -39 16 -106 30c-21 4 -30 7 -45 12zM316 616c27 0 49 -23 49 -50s-23 -50 -50 -50c-28 0 -50 22 -50 50s23 50 51 50z" />
    <glyph glyph-name="Gcommaaccent" unicode="&#x122;" horiz-adv-x="722" 
d="M723 671l-48 -200l-18 3c-5 45 -12 67 -29 93c-31 46 -87 74 -153 74s-130 -27 -175 -75c-77 -83 -126 -212 -126 -334c0 -136 74 -212 207 -212c46 0 84 12 106 34c12 13 17 24 37 93c20 70 27 103 27 125s-13 28 -80 35v16h270v-16c-66 -5 -82 -16 -98 -73l-48 -189
c-78 -44 -150 -63 -239 -63c-88 0 -163 27 -215 79c-49 49 -79 121 -79 191c0 223 192 423 405 423c42 0 86 -8 136 -24c23 -8 34 -10 44 -10c27 0 43 9 61 34zM239 -274l-9 17c52 36 75 62 75 90c0 10 -5 19 -21 33c-19 17 -25 28 -25 46c0 27 22 47 51 47
c33 0 59 -32 59 -73c0 -57 -45 -113 -130 -160z" />
    <glyph glyph-name="gcommaaccent" unicode="&#x123;" 
d="M481 411l-1 -40h-50c5 -20 8 -39 8 -56c0 -79 -96 -162 -188 -162c-11 0 -23 1 -32 3c-3 1 -5 1 -7 1c-14 0 -37 -27 -37 -42s26 -31 70 -42c97 -26 145 -70 145 -133c0 -89 -86 -149 -213 -149c-104 0 -170 44 -170 114c0 48 19 69 120 134c-19 15 -27 26 -27 40
c0 24 18 44 78 85c-57 27 -79 56 -79 109c0 96 92 174 205 174c39 0 72 -10 100 -28c8 -6 13 -8 16 -8h62zM183 17l-29 9c-2 1 -4 2 -5 2c-8 0 -51 -33 -65 -51c-16 -19 -22 -37 -22 -62c0 -64 47 -102 128 -102c79 0 138 41 138 96c0 47 -36 73 -145 108zM302 425
c-67 0 -125 -82 -125 -176c0 -47 22 -75 60 -75c35 0 66 22 89 64c20 35 32 79 32 116c0 47 -19 71 -56 71zM409 716l9 -17c-54 -36 -77 -63 -77 -90c0 -10 6 -19 20 -33c19 -17 25 -28 25 -45c0 -28 -22 -48 -52 -48c-33 0 -58 30 -58 71c0 58 46 114 133 162z" />
    <glyph glyph-name="Hcircumflex" unicode="&#x124;" horiz-adv-x="722" 
d="M568 885l91 -171h-37l-84 105l-138 -105h-39l157 171h50zM796 662v-16c-58 -10 -65 -16 -83 -75l-129 -488c-2 -8 -3 -16 -3 -23c0 -30 13 -37 80 -44v-16h-277v16c66 7 86 22 102 75l63 239h-289l-64 -247c-2 -7 -3 -14 -3 -22c0 -30 11 -36 72 -45l1 -16h-250v16
c56 10 64 17 81 75l121 448c8 30 11 47 11 62c0 31 -15 39 -79 45v16h277v-16c-61 -5 -87 -24 -102 -75l-53 -198h289l45 166c8 27 11 47 11 63c0 29 -12 37 -72 44v16h251z" />
    <glyph glyph-name="hcircumflex" unicode="&#x125;" 
d="M328 893l88 -172h-36l-83 106l-139 -106h-40l161 172h49zM479 119l13 -13c-62 -88 -97 -115 -148 -115c-28 0 -45 16 -45 42c0 12 7 44 21 94l58 209c4 17 7 29 7 34c1 13 -13 25 -28 25c-36 0 -106 -63 -159 -143c-41 -62 -54 -96 -96 -252h-76l141 519
c6 22 10 36 10 38c10 29 15 54 15 68c0 15 -18 26 -41 25l-26 -1v16c62 8 101 14 159 28l5 -6l-126 -453c97 147 169 213 235 213c39 0 66 -27 66 -67c0 -26 -20 -102 -51 -196c-17 -53 -34 -116 -34 -127c0 -10 7 -18 16 -18c17 0 29 12 84 80z" />
    <glyph glyph-name="Hbar" unicode="&#x126;" horiz-adv-x="722" 
d="M222 498h-88l10 33h88l8 31c4 15 7 31 7 41c0 30 -19 41 -72 41l5 18h272l-5 -18c-73 1 -92 -14 -111 -87l-8 -26h270l8 31c4 15 7 31 7 41c0 30 -19 41 -72 41l5 18h268l-5 -18c-69 0 -88 -16 -107 -87l-7 -26h89l-10 -33h-89l-112 -398c-4 -16 -7 -31 -7 -41
c0 -17 10 -30 25 -36c10 -3 24 -5 48 -5l-5 -18h-266l5 18c66 1 85 17 104 87l64 225h-269l-65 -230c-4 -15 -7 -31 -7 -41c0 -16 10 -30 25 -36c9 -3 22 -5 46 -5l-5 -18h-259l5 18c62 1 81 18 99 87zM319 498l-37 -131h269l37 131h-269z" />
    <glyph glyph-name="hbar" unicode="&#x127;" 
d="M243 522l-80 -288c97 147 169 213 235 213c39 0 66 -27 66 -67c0 -26 -20 -102 -51 -196c-17 -53 -34 -116 -34 -127c0 -10 7 -18 16 -18c17 0 29 12 84 80l13 -13c-62 -88 -97 -115 -148 -115c-28 0 -45 16 -45 42c0 12 7 44 21 94l58 209c4 17 7 29 7 34
c1 13 -13 25 -28 25c-36 0 -106 -63 -159 -143c-41 -62 -54 -96 -96 -252h-76l142 522h-55l9 31h54l1 4c10 31 15 56 15 68c0 15 -18 26 -41 25l-26 -1v16c62 8 101 14 159 28l5 -6l-37 -134h123l-9 -31h-123z" />
    <glyph glyph-name="Itilde" unicode="&#x128;" horiz-adv-x="333" 
d="M6 0v16c57 10 64 17 81 75l121 448c8 30 11 47 11 62c0 30 -12 37 -72 45v16h250l1 -16c-59 -10 -66 -16 -83 -75l-120 -449c-10 -35 -11 -43 -11 -63c0 -29 10 -36 69 -43l1 -16h-248zM437 839h29c-14 -69 -47 -106 -96 -106c-13 0 -31 5 -58 16c-54 21 -79 29 -97 29
c-25 0 -41 -15 -51 -48h-29c20 78 47 108 100 108c23 0 50 -8 88 -25c31 -14 47 -19 62 -19c28 0 41 11 52 45z" />
    <glyph glyph-name="itilde" unicode="&#x129;" horiz-adv-x="278" 
d="M238 116l13 -12c-58 -85 -96 -115 -143 -115c-30 0 -46 20 -46 57c0 20 7 53 23 111l50 179c6 21 9 36 10 45c1 20 -10 24 -64 25v16c40 3 62 7 162 25l3 -2l-91 -326c-3 -8 -5 -17 -7 -22c-7 -19 -10 -34 -10 -45c0 -8 8 -15 16 -15c9 0 24 10 42 28c10 10 16 17 42 51z
M342 633h29c-15 -69 -49 -106 -97 -106c-14 0 -32 5 -59 16c-54 22 -78 29 -96 29c-25 0 -42 -15 -52 -48h-29c21 78 49 108 103 108c22 0 49 -8 86 -25c31 -14 47 -19 63 -19c27 0 40 11 52 45z" />
    <glyph glyph-name="Imacron" unicode="&#x12a;" horiz-adv-x="333" 
d="M6 0v16c57 10 64 17 81 75l121 448c8 30 11 47 11 62c0 30 -12 37 -72 45v16h250l1 -16c-59 -10 -66 -16 -83 -75l-120 -449c-10 -35 -11 -43 -11 -63c0 -29 10 -36 69 -43l1 -16h-248zM454 806l-11 -52h-305l11 52h305z" />
    <glyph glyph-name="imacron" unicode="&#x12b;" horiz-adv-x="278" 
d="M238 116l13 -12c-58 -85 -96 -115 -143 -115c-30 0 -46 20 -46 57c0 20 6 50 24 111l50 179c5 20 9 35 9 45c1 20 -10 24 -64 25v16c40 3 63 7 163 25l3 -2l-92 -326c-2 -8 -5 -16 -7 -22c-6 -19 -10 -34 -10 -45c0 -8 8 -15 16 -15c9 0 24 10 42 28c10 10 16 17 42 51z
M369 591l-12 -52h-305l12 52h305z" />
    <glyph glyph-name="Ibreve" unicode="&#x12c;" horiz-adv-x="333" 
d="M6 0v16c57 10 64 17 81 75l121 448c8 30 11 47 11 62c0 30 -12 37 -72 45v16h250l1 -16c-59 -10 -66 -16 -83 -75l-120 -449c-10 -35 -11 -43 -11 -63c0 -29 10 -36 69 -43l1 -16h-248zM440 872h29c-8 -42 -17 -64 -37 -91c-34 -45 -80 -69 -135 -69
c-45 0 -81 16 -103 45c-21 26 -29 58 -30 115h30c5 -63 45 -100 110 -100c62 0 112 36 136 100z" />
    <glyph glyph-name="ibreve" unicode="&#x12d;" horiz-adv-x="278" 
d="M225 105l7 -21c-54 -65 -98 -99 -129 -99c-22 0 -42 18 -42 38c0 9 2 21 7 36l84 285c7 26 9 34 9 45c0 15 -8 22 -27 22c-9 0 -17 -1 -33 -4l6 19c47 4 97 12 148 25l-113 -385c-2 -6 -3 -11 -3 -14c0 -7 7 -13 14 -13c15 0 46 28 72 66zM138 659h17
c4 -59 26 -84 72 -84c44 0 73 23 105 84h17c-24 -95 -65 -142 -127 -142c-56 0 -85 37 -85 107c0 10 0 18 1 35z" />
    <glyph glyph-name="Iogonek" unicode="&#x12e;" horiz-adv-x="333" 
d="M147 662h250l1 -16c-59 -10 -66 -16 -83 -75l-120 -449c-10 -35 -11 -43 -11 -63c0 -29 10 -36 69 -43l1 -16c-12 -14 -17 -30 -17 -48c0 -37 23 -59 61 -59c32 0 56 9 84 32l17 -18c-35 -52 -76 -78 -126 -78c-53 0 -97 44 -97 98c0 27 5 42 27 73h-197v16
c57 10 64 17 81 75l121 448c8 30 11 47 11 62c0 30 -12 37 -72 45v16z" />
    <glyph glyph-name="iogonek" unicode="&#x12f;" horiz-adv-x="278" 
d="M238 116l13 -12c-33 -48 -49 -67 -78 -91c-36 -28 -41 -36 -41 -64c0 -35 22 -56 60 -56c32 0 56 9 84 32l17 -18c-36 -52 -78 -78 -127 -78c-54 0 -96 43 -96 97c0 25 6 41 23 65c-22 8 -31 24 -31 55c0 20 6 50 24 111l50 179c5 20 9 35 9 45c1 20 -10 24 -64 25v16
c40 3 63 7 163 25l3 -2l-92 -326c-2 -8 -5 -16 -7 -22c-6 -19 -10 -34 -10 -45c0 -8 8 -15 16 -15c9 0 24 10 42 28c10 10 16 17 42 51zM235 663c27 0 50 -26 50 -56c0 -27 -23 -51 -51 -51c-29 0 -48 21 -48 52c0 32 20 55 49 55z" />
    <glyph glyph-name="Idotaccent" unicode="&#x130;" horiz-adv-x="333" 
d="M6 0v16c57 10 64 17 81 75l121 448c8 30 11 47 11 62c0 30 -12 37 -72 45v16h250l1 -16c-59 -10 -66 -16 -83 -75l-120 -449c-10 -35 -11 -43 -11 -63c0 -29 10 -36 69 -43l1 -16h-248zM307 829c25 0 49 -24 49 -50c0 -27 -22 -49 -49 -49c-28 0 -50 22 -50 51
c0 27 22 48 50 48z" />
    <glyph glyph-name="dotlessi" unicode="&#x131;" horiz-adv-x="278" 
d="M238 116l13 -12c-58 -85 -96 -115 -143 -115c-30 0 -46 20 -46 57c0 20 6 50 24 111l50 179c5 20 9 35 9 45c1 20 -10 24 -64 25v16c40 3 63 7 163 25l3 -2l-92 -326c-2 -8 -5 -16 -7 -22c-6 -19 -10 -34 -10 -45c0 -8 8 -15 16 -15c9 0 24 10 42 28c10 10 16 17 42 51z
" />
    <glyph glyph-name="IJ" unicode="&#x132;" horiz-adv-x="750" 
d="M271 18l-5 -18h-259l5 18c62 2 81 19 99 88l129 464c4 15 7 31 7 41c0 31 -19 42 -72 42l5 18h272l-5 -18c-73 1 -92 -14 -111 -88l-129 -464c-4 -15 -7 -31 -7 -41c0 -17 9 -31 25 -37c9 -3 23 -5 46 -5zM573 653l5 18h257l-5 -18c-50 -2 -71 -24 -87 -88l-104 -374
c-17 -60 -42 -110 -72 -140c-37 -39 -86 -62 -131 -62c-59 0 -104 40 -104 93c0 39 28 71 63 71c27 0 47 -20 47 -46c0 -12 -4 -22 -14 -32c-11 -12 -13 -16 -13 -25c0 -14 12 -24 29 -24c32 0 61 35 77 92l125 452c4 16 7 32 7 42c0 19 -12 33 -32 38c-9 2 -26 3 -48 3z
" />
    <glyph glyph-name="ij" unicode="&#x133;" 
d="M227 105l7 -21c-54 -65 -98 -99 -129 -99c-22 0 -42 18 -42 38c0 9 2 21 7 36l84 285c7 26 9 34 9 45c0 15 -8 22 -27 22c-9 0 -17 -1 -33 -4l6 19c47 4 97 12 148 25l-113 -385c-2 -6 -3 -11 -3 -14c0 -7 7 -13 14 -13c15 0 46 28 72 66zM246 622c27 0 50 -23 50 -51
c0 -29 -23 -52 -52 -52c-28 0 -51 23 -51 52c0 28 24 51 53 51zM329 405l6 17c51 4 91 10 145 21l-120 -406c-39 -133 -110 -210 -194 -210c-41 0 -71 19 -71 46c0 22 18 39 41 39c20 0 33 -12 33 -29s-9 -26 -26 -26c6 -9 13 -13 25 -13c21 0 44 13 60 33
c19 24 25 39 46 112l108 364c5 18 6 23 6 29c0 15 -11 25 -30 25c-8 0 -14 -1 -29 -2zM469 622c27 0 50 -23 50 -51c0 -29 -23 -52 -52 -52c-28 0 -51 23 -51 52c0 28 24 51 53 51z" />
    <glyph glyph-name="Jcircumflex" unicode="&#x134;" horiz-adv-x="444" 
d="M505 662l1 -16c-58 -9 -65 -14 -83 -75l-101 -376c-21 -78 -40 -123 -67 -155c-32 -38 -76 -58 -129 -58c-71 0 -119 36 -119 90c0 32 18 54 45 54c31 0 51 -22 50 -58c-1 -43 7 -55 35 -55c25 0 39 15 49 55l129 471c9 34 12 50 12 65c0 28 -14 35 -79 42v16h257z
M442 893l91 -172h-37l-84 106l-138 -106h-39l157 172h50z" />
    <glyph glyph-name="jcircumflex" unicode="&#x135;" horiz-adv-x="278" 
d="M248 445l-109 -417c-42 -162 -103 -238 -191 -238c-47 0 -80 26 -80 62c0 25 17 43 41 43c23 0 41 -16 41 -38c0 -8 -2 -13 -8 -21c-4 -5 -5 -8 -5 -11c0 -8 6 -12 18 -12c40 0 64 44 100 184l75 296c11 44 17 71 17 82c0 10 -3 19 -7 23c-5 5 -24 10 -33 9l-7 -1h-28v16
c32 2 89 10 173 25zM244 670l88 -171h-36l-83 105l-139 -105h-40l161 171h49z" />
    <glyph glyph-name="Kcommaaccent" unicode="&#x136;" horiz-adv-x="667" 
d="M738 662v-16c-24 -5 -48 -16 -76 -37l-302 -229l180 -307c28 -47 34 -51 99 -57v-16h-279v16c12 2 24 3 28 4c33 2 47 10 47 25c0 19 -15 56 -39 97l-124 211l-61 -231c-3 -9 -5 -16 -6 -22c-7 -21 -8 -28 -8 -38c0 -33 9 -39 73 -46l1 -16h-252v16c59 10 65 15 82 75
l121 448c8 30 11 47 11 63c0 30 -15 38 -79 44v16h277v-16c-60 -5 -87 -25 -102 -75l-52 -197l153 108c90 63 145 117 145 141c0 5 -3 11 -6 13c-7 4 -16 6 -28 7c-7 0 -16 1 -28 3v16h225zM226 -274l-9 17c53 36 75 63 75 90c0 10 -6 19 -21 33c-19 17 -25 28 -25 47
c0 26 22 46 52 46c33 0 59 -32 59 -73c0 -57 -45 -112 -131 -160z" />
    <glyph glyph-name="kcommaaccent" unicode="&#x137;" horiz-adv-x="444" 
d="M434 111l16 -12c-47 -84 -73 -110 -114 -110c-29 0 -49 21 -79 83c-19 39 -45 100 -60 143l-43 -32l-50 -183h-76l133 490c5 19 6 24 11 42c14 47 21 74 23 92c-1 17 -17 25 -51 25h-17v16c60 7 99 14 158 28l5 -6l-125 -463c14 11 29 23 44 34c95 72 146 122 146 142
c0 13 -12 17 -56 18v16h186v-16c-48 -3 -80 -25 -230 -156c17 -40 32 -77 37 -90c39 -97 59 -130 81 -130c19 0 25 7 61 69zM104 -274l-9 17c54 36 77 63 77 90c0 11 -5 19 -20 33c-19 17 -25 28 -25 45c0 28 22 48 52 48c33 0 58 -31 58 -71c0 -57 -46 -114 -133 -162z" />
    <glyph glyph-name="kgreenlandic" unicode="&#x138;" horiz-adv-x="444" 
d="M136 179l-53 -179h-68l102 365c4 15 6 26 6 30c0 11 -11 20 -24 20c-7 0 -8 0 -28 -3l6 19c66 8 76 10 140 23l-70 -237l136 115c75 64 75 64 75 76c0 11 -7 14 -42 16l5 15h179l-4 -15c-57 -3 -124 -44 -241 -147l62 -176c14 -40 29 -61 44 -61c19 0 50 34 76 85l14 -8
c-30 -52 -43 -71 -65 -94c-20 -22 -45 -35 -64 -35c-24 0 -41 18 -53 52l-67 194z" />
    <glyph glyph-name="Lacute" unicode="&#x139;" horiz-adv-x="556" 
d="M415 662v-16c-61 -5 -87 -24 -102 -75l-120 -449c-6 -20 -10 -42 -10 -50c0 -26 25 -35 101 -35c90 0 131 6 166 23c45 23 72 55 107 128l20 -6l-57 -182h-516v16c56 10 64 17 81 76l121 448c8 29 11 46 11 62c0 30 -15 38 -79 44v16h277zM257 716l163 162
c6 7 15 10 25 10c21 0 37 -16 37 -36c0 -13 -5 -21 -17 -28l-173 -108h-35z" />
    <glyph glyph-name="lacute" unicode="&#x13a;" horiz-adv-x="278" 
d="M246 125l14 -9c-67 -98 -102 -127 -155 -127c-32 0 -49 19 -49 56c0 7 1 16 4 27l144 535c3 9 4 15 4 19c0 14 -20 23 -52 23h-17v16c61 7 99 14 159 28l4 -6l-157 -587v-2c-1 -1 -2 -4 -3 -8c-5 -18 -8 -31 -8 -39c0 -13 5 -19 15 -19c22 0 32 9 97 93zM174 716l166 162
c6 7 15 10 25 10c21 0 37 -15 37 -36c0 -12 -5 -21 -18 -28l-174 -108h-36z" />
    <glyph glyph-name="Lcommaaccent" unicode="&#x13b;" horiz-adv-x="556" 
d="M415 662v-16c-61 -5 -87 -24 -102 -75l-120 -449c-6 -20 -10 -42 -10 -50c0 -26 25 -35 101 -35c90 0 131 6 166 23c45 23 72 55 107 128l20 -6l-57 -182h-516v16c56 10 64 17 81 76l121 448c8 29 11 46 11 62c0 30 -15 38 -79 44v16h277zM176 -274l-9 17
c52 36 75 62 75 90c0 10 -5 19 -21 33c-19 17 -25 28 -25 46c0 27 22 47 51 47c33 0 59 -32 59 -72c0 -58 -45 -113 -130 -161z" />
    <glyph glyph-name="lcommaaccent" unicode="&#x13c;" horiz-adv-x="278" 
d="M247 125l13 -9c-67 -98 -102 -127 -155 -127c-32 0 -49 19 -49 56c0 6 2 16 5 27l144 535c2 8 3 15 3 19c0 14 -20 23 -51 23h-17v16c60 7 99 14 158 28l5 -6l-158 -587v-2l-2 -8c-6 -16 -9 -31 -9 -39c0 -13 5 -19 15 -19c22 0 31 8 98 93zM0 -274l-9 17
c54 36 77 63 77 90c0 10 -6 19 -20 33c-19 17 -25 28 -25 45c0 28 22 48 52 48c33 0 58 -31 58 -71c0 -57 -46 -114 -133 -162z" />
    <glyph glyph-name="Lcaron" unicode="&#x13d;" horiz-adv-x="611" 
d="M418 662v-16c-61 -5 -87 -24 -102 -75l-120 -449c-6 -20 -10 -42 -10 -50c0 -26 25 -35 101 -35c90 0 131 6 166 23c45 23 72 55 107 128l20 -6l-57 -182h-516v16c56 10 64 17 81 76l121 448c8 29 11 46 11 62c0 30 -15 38 -79 44v16h277zM442 442l-9 17
c52 35 75 62 75 89c0 11 -5 20 -21 34c-19 17 -25 28 -25 47c0 26 22 46 52 46c33 0 59 -32 59 -73c0 -57 -45 -112 -131 -160z" />
    <glyph glyph-name="lcaron" unicode="&#x13e;" horiz-adv-x="300" 
d="M313 442l-9 17c54 36 77 63 77 90c0 10 -6 19 -20 33c-19 17 -25 28 -25 45c0 28 22 48 53 48c33 0 58 -31 58 -71c0 -58 -46 -114 -134 -162zM245 125l14 -9c-67 -98 -102 -127 -155 -127c-32 0 -49 19 -49 56c0 7 1 16 4 27l144 535c3 9 4 15 4 19c0 14 -20 23 -52 23
h-17v16c61 7 99 14 159 28l4 -6l-157 -587v-2c-1 -1 -2 -4 -3 -8c-5 -18 -8 -31 -8 -39c0 -13 5 -19 15 -19c22 0 32 9 97 93z" />
    <glyph glyph-name="Ldot" unicode="&#x13f;" horiz-adv-x="556" 
d="M415 662v-16c-61 -5 -87 -24 -102 -75l-120 -449c-6 -20 -10 -42 -10 -50c0 -26 25 -35 101 -35c90 0 131 6 166 23c45 23 72 55 107 128l20 -6l-57 -182h-516v16c56 10 64 17 81 76l121 448c8 29 11 46 11 62c0 30 -15 38 -79 44v16h277zM426 382c31 0 57 -27 57 -59
c0 -29 -26 -54 -57 -54c-30 0 -55 25 -55 56c0 32 24 57 55 57z" />
    <glyph glyph-name="ldot" unicode="&#x140;" horiz-adv-x="323" 
d="M326 382c31 0 56 -26 56 -58c0 -30 -27 -55 -58 -55c-29 0 -54 25 -54 55c0 32 25 58 56 58zM246 125l14 -9c-67 -98 -102 -127 -155 -127c-32 0 -49 19 -49 56c0 7 1 16 4 27l144 535c3 9 4 15 4 19c0 14 -20 23 -52 23h-17v16c61 7 99 14 159 28l4 -6l-157 -587v-2
c-1 -1 -2 -4 -3 -8c-5 -18 -8 -31 -8 -39c0 -13 5 -19 15 -19c22 0 32 9 97 93z" />
    <glyph glyph-name="Lslash" unicode="&#x141;" horiz-adv-x="556" 
d="M557 188l20 -6l-57 -182h-516v16c56 10 64 17 81 76l53 196l-99 -60l12 49l100 60l55 203c8 29 11 46 11 62c0 30 -15 38 -79 44v16h277v-16c-61 -5 -87 -24 -102 -75l-48 -177l144 86l-13 -50l-144 -84c-11 -41 -22 -82 -33 -125c-26 -95 -37 -138 -37 -150
c0 -25 26 -34 104 -34c88 0 129 6 164 23c45 23 72 55 107 128z" />
    <glyph glyph-name="lslash" unicode="&#x142;" horiz-adv-x="278" 
d="M230 416l99 50l-12 -46l-100 -51l-72 -269l-1 -2c0 -1 -1 -4 -2 -8c-5 -18 -8 -31 -8 -39c0 -13 5 -19 15 -19c22 0 30 8 97 93l14 -9c-67 -98 -102 -127 -155 -127c-33 0 -49 19 -49 56c0 18 7 49 27 122l22 74c6 17 13 43 22 77l-73 -36l13 47l73 36
c48 176 68 251 68 260c0 15 -20 24 -51 24h-18v16c60 7 99 14 159 28l5 -6z" />
    <glyph glyph-name="Nacute" unicode="&#x143;" horiz-adv-x="667" 
d="M742 662l1 -16c-64 -15 -68 -20 -104 -151l-142 -510h-18l-239 557l-111 -427c-6 -22 -9 -42 -9 -54c0 -29 19 -41 72 -45v-16h-201v16c58 8 66 20 103 150l117 423c-19 40 -40 53 -88 57v16h163l216 -506l100 385c0 3 1 5 2 9c6 22 8 32 8 43c0 38 -13 48 -71 53v16h201
zM397 716l163 162c6 7 15 10 25 10c21 0 37 -16 37 -36c0 -13 -5 -21 -17 -28l-172 -108h-36z" />
    <glyph glyph-name="nacute" unicode="&#x144;" 
d="M479 119l14 -14c-71 -93 -97 -114 -143 -114c-33 0 -47 16 -47 55c0 10 2 19 17 75l46 168c9 33 15 65 15 77c0 18 -9 29 -24 29c-38 0 -90 -50 -151 -144c-46 -69 -55 -91 -104 -251h-76l100 355c2 6 2 9 2 17c0 20 -13 26 -64 28v16c89 16 110 20 164 31l3 -2l-69 -221
c105 162 170 223 235 223c39 0 66 -25 66 -61c0 -15 -4 -37 -10 -59l-59 -209c-15 -56 -15 -56 -15 -63c0 -9 7 -16 16 -16c17 0 28 11 84 80zM298 501l165 162c7 6 16 10 25 10c21 0 37 -16 37 -36c0 -13 -5 -21 -17 -29l-175 -107h-35z" />
    <glyph glyph-name="Ncommaaccent" unicode="&#x145;" horiz-adv-x="667" 
d="M742 662l1 -16c-64 -15 -68 -20 -104 -151l-142 -510h-18l-239 557l-111 -427c-6 -22 -9 -42 -9 -54c0 -29 19 -41 72 -45v-16h-201v16c58 8 66 20 103 150l117 423c-19 40 -40 53 -88 57v16h163l216 -506l100 385c0 3 1 5 2 9c6 22 8 32 8 43c0 38 -13 48 -71 53v16h201
zM223 -274l-10 17c54 36 76 63 76 90c0 10 -5 19 -21 33c-20 17 -26 28 -26 47c0 26 22 46 52 46c33 0 59 -32 59 -72c0 -58 -45 -113 -130 -161z" />
    <glyph glyph-name="ncommaaccent" unicode="&#x146;" 
d="M479 119l14 -14c-71 -93 -97 -114 -143 -114c-33 0 -47 16 -47 55c0 10 2 19 17 75l46 168c9 33 15 65 15 77c0 18 -9 29 -24 29c-38 0 -90 -50 -151 -144c-46 -69 -55 -91 -104 -251h-76l100 355c2 6 2 9 2 17c0 20 -13 26 -64 28v16c89 16 110 20 164 31l3 -2l-69 -221
c105 162 170 223 235 223c39 0 66 -25 66 -61c0 -15 -4 -37 -10 -59l-59 -209c-15 -56 -15 -56 -15 -63c0 -9 7 -16 16 -16c17 0 28 11 84 80zM116 -274l-9 17c54 36 77 63 77 90c0 10 -6 19 -20 33c-19 17 -25 28 -25 46c0 27 22 47 52 47c33 0 58 -31 58 -71
c0 -57 -47 -114 -133 -162z" />
    <glyph glyph-name="Ncaron" unicode="&#x147;" horiz-adv-x="667" 
d="M742 662l1 -16c-64 -15 -68 -20 -104 -151l-142 -510h-18l-239 557l-111 -427c-6 -22 -9 -42 -9 -54c0 -29 19 -41 72 -45v-16h-201v16c58 8 66 20 103 150l117 423c-19 40 -40 53 -88 57v16h163l216 -506l100 385c0 3 1 5 2 9c6 22 8 32 8 43c0 38 -13 48 -71 53v16h201
zM630 885l-163 -171h-47l-99 171h38l92 -106l143 106h36z" />
    <glyph glyph-name="ncaron" unicode="&#x148;" 
d="M479 119l14 -14c-71 -93 -97 -114 -143 -114c-33 0 -47 16 -47 55c0 10 2 19 17 75l46 168c9 33 15 65 15 77c0 18 -9 29 -24 29c-38 0 -90 -50 -151 -144c-46 -69 -55 -91 -104 -251h-76l100 355c2 6 2 9 2 17c0 20 -13 26 -64 28v16c89 16 110 20 164 31l3 -2l-69 -221
c105 162 170 223 235 223c39 0 66 -25 66 -61c0 -15 -4 -37 -10 -59l-59 -209c-15 -56 -15 -56 -15 -63c0 -9 7 -16 16 -16c17 0 28 11 84 80zM516 670l-166 -171h-47l-96 171h37l91 -106l145 106h36z" />
    <glyph glyph-name="napostrophe" unicode="&#x149;" horiz-adv-x="577" 
d="M122 496l-18 21c47 20 72 43 72 67c0 10 -3 15 -18 29c-8 7 -12 16 -12 26c0 24 21 46 45 46c25 0 46 -24 46 -52c0 -53 -44 -105 -115 -137zM556 119l14 -14c-71 -93 -97 -114 -143 -114c-33 0 -47 16 -47 55c0 10 2 19 17 75l46 168c9 33 15 65 15 77
c0 18 -9 29 -24 29c-38 0 -90 -50 -151 -144c-46 -69 -55 -91 -104 -251h-76l100 355c2 6 2 9 2 17c0 20 -13 26 -64 28v16c89 16 110 20 164 31l3 -2l-69 -221c105 162 170 223 235 223c39 0 66 -25 66 -61c0 -15 -4 -37 -10 -59l-59 -209c-15 -56 -15 -56 -15 -63
c0 -9 7 -16 16 -16c17 0 28 11 84 80z" />
    <glyph glyph-name="Eng" unicode="&#x14a;" horiz-adv-x="696" 
d="M324 662l-66 -221c109 172 174 224 281 224c89 0 137 -40 137 -114c0 -15 -2 -27 -5 -40l-124 -483c-26 -98 -45 -144 -78 -183s-67 -55 -118 -55c-63 0 -99 23 -99 63c0 27 20 48 45 48s43 -19 43 -44c0 -8 -2 -14 -7 -21c-4 -6 -5 -8 -5 -11c0 -8 6 -12 18 -12
c41 0 61 39 97 184l122 480c7 25 10 48 10 68c0 44 -26 68 -72 68c-79 0 -150 -60 -219 -184c-31 -57 -62 -150 -114 -338l-25 -91h-96l151 572c2 5 2 9 2 16c0 21 -13 27 -65 29v16c88 16 110 20 164 31z" />
    <glyph glyph-name="eng" unicode="&#x14b;" horiz-adv-x="482" 
d="M224 445l-69 -221c105 162 170 223 235 223c39 0 66 -25 66 -61c0 -14 -4 -36 -10 -59l-81 -299c-26 -95 -47 -144 -81 -183c-32 -37 -68 -55 -109 -55c-48 0 -81 25 -81 62c0 25 17 43 41 43c23 0 41 -16 41 -37c0 -9 -2 -14 -8 -22c-4 -6 -5 -8 -5 -12
c0 -7 6 -11 18 -11c41 0 62 39 100 184l79 296c8 31 14 62 14 73c0 18 -9 29 -24 29c-38 0 -90 -50 -151 -144c-46 -69 -55 -91 -104 -251h-76l100 355c2 6 2 9 2 17c0 20 -13 26 -64 28v16c89 16 110 20 164 31z" />
    <glyph glyph-name="Omacron" unicode="&#x14c;" horiz-adv-x="722" 
d="M486 675c137 0 237 -110 230 -254c-11 -228 -213 -439 -422 -439c-131 0 -224 102 -224 246c0 118 58 239 159 332c80 74 171 115 257 115zM477 641c-74 0 -136 -39 -192 -120c-60 -88 -108 -236 -108 -332c0 -112 48 -174 133 -174c72 0 134 40 189 120
c64 94 110 239 110 349c0 97 -51 157 -132 157zM658 806l-10 -52h-306l11 52h305z" />
    <glyph glyph-name="omacron" unicode="&#x14d;" 
d="M331 447c86 0 144 -57 144 -141c0 -76 -42 -163 -109 -229c-60 -58 -125 -88 -192 -88c-92 0 -148 53 -148 141c0 107 74 224 180 283c42 23 81 34 125 34zM319 426c-44 0 -87 -30 -127 -88c-50 -72 -81 -163 -81 -238c0 -54 32 -90 78 -90c44 0 83 25 120 79
c47 67 81 169 81 243c0 58 -28 94 -71 94zM495 591l-12 -52h-305l12 52h305z" />
    <glyph glyph-name="Obreve" unicode="&#x14e;" horiz-adv-x="722" 
d="M486 675c137 0 237 -110 230 -254c-11 -228 -213 -439 -422 -439c-131 0 -224 102 -224 246c0 118 58 239 159 332c80 74 171 115 257 115zM477 641c-74 0 -136 -39 -192 -120c-60 -88 -108 -236 -108 -332c0 -112 48 -174 133 -174c72 0 134 40 189 120
c64 94 110 239 110 349c0 97 -51 157 -132 157zM658 872h29c-8 -42 -17 -64 -37 -91c-34 -45 -80 -69 -135 -69c-45 0 -81 16 -103 45c-21 26 -29 58 -30 115h29c5 -63 46 -100 111 -100c62 0 111 36 136 100z" />
    <glyph glyph-name="obreve" unicode="&#x14f;" 
d="M331 447c86 0 144 -57 144 -141c0 -76 -42 -163 -109 -229c-60 -58 -125 -88 -192 -88c-92 0 -148 53 -148 141c0 107 74 224 180 283c42 23 81 34 125 34zM319 426c-44 0 -87 -30 -127 -88c-50 -72 -81 -163 -81 -238c0 -54 32 -90 78 -90c44 0 83 25 120 79
c47 67 81 169 81 243c0 58 -28 94 -71 94zM498 659h29c-22 -101 -86 -160 -174 -160c-46 0 -81 15 -104 45c-19 26 -27 58 -27 115h29c4 -63 44 -100 109 -100c62 0 112 36 138 100z" />
    <glyph glyph-name="Ohungarumlaut" unicode="&#x150;" horiz-adv-x="722" 
d="M486 675c137 0 237 -110 230 -254c-11 -228 -213 -439 -422 -439c-131 0 -224 102 -224 246c0 118 58 239 159 332c80 74 171 115 257 115zM477 641c-74 0 -136 -39 -192 -120c-60 -88 -108 -236 -108 -332c0 -112 48 -174 133 -174c72 0 134 40 189 120
c64 94 110 239 110 349c0 97 -51 157 -132 157zM355 716l163 162c6 7 15 10 25 10c21 0 37 -16 37 -36c0 -13 -5 -21 -17 -28l-172 -108h-36zM527 716l163 162c7 7 15 10 25 10c21 0 37 -16 37 -36c0 -13 -5 -21 -17 -28l-172 -108h-36z" />
    <glyph glyph-name="ohungarumlaut" unicode="&#x151;" 
d="M331 447c86 0 144 -57 144 -141c0 -76 -42 -163 -109 -229c-60 -58 -125 -88 -192 -88c-92 0 -148 53 -148 141c0 107 74 224 180 283c42 23 81 34 125 34zM319 426c-44 0 -87 -30 -127 -88c-50 -72 -81 -163 -81 -238c0 -54 32 -90 78 -90c44 0 83 25 120 79
c47 67 81 169 81 243c0 58 -28 94 -71 94zM237 501l165 162c7 6 16 10 25 10c21 0 37 -15 37 -36c0 -12 -5 -21 -18 -29l-174 -107h-35zM409 501l166 162c6 7 15 10 24 10c21 0 37 -16 37 -36c0 -13 -5 -21 -17 -29l-175 -107h-35z" />
    <glyph glyph-name="OE" unicode="&#x152;" horiz-adv-x="944" 
d="M981 662l-30 -152h-16c1 101 -15 116 -123 119h-98c-22 -1 -31 -9 -37 -32l-63 -231c159 -1 174 5 212 97l19 -4l-65 -234l-20 2l3 27l2 16c-1 47 -17 57 -96 60l-63 3l-51 -193l-2 -7l-2 -8c-8 -29 -11 -45 -11 -54c0 -29 18 -38 76 -38c148 0 207 29 287 141l17 -6
l-65 -168h-351c-34 0 -59 -1 -111 -4c-62 -3 -78 -4 -104 -4c-133 0 -232 102 -232 240c0 235 186 443 396 443l154 -13h374zM472 202l71 272c20 74 20 74 20 89c0 47 -44 80 -105 80c-48 0 -93 -17 -134 -51c-91 -77 -157 -238 -157 -382c0 -124 49 -186 147 -186
c44 0 81 15 101 39c24 30 37 62 57 139z" />
    <glyph glyph-name="oe" unicode="&#x153;" horiz-adv-x="667" 
d="M614 106l11 -11c-77 -75 -137 -107 -201 -107c-46 0 -81 23 -105 69c-52 -50 -88 -68 -140 -68c-85 0 -146 61 -146 147c0 145 149 311 280 311c54 0 96 -30 113 -81c71 63 107 81 163 81c51 0 81 -25 81 -68c0 -39 -26 -79 -71 -111c-41 -28 -117 -58 -160 -62
c-25 -2 -33 -6 -37 -18c-6 -17 -11 -51 -11 -74c0 -49 31 -83 75 -83c39 0 68 15 148 75zM303 424c-27 0 -52 -12 -74 -36c-65 -69 -112 -189 -112 -288c0 -57 25 -91 68 -91c32 0 60 18 88 58c21 30 36 64 55 125c22 72 34 132 34 165c0 41 -23 67 -59 67zM411 218
c89 27 105 35 137 63c35 31 55 69 55 102c0 24 -13 39 -35 39c-21 0 -47 -14 -71 -40c-40 -42 -59 -79 -86 -164z" />
    <glyph glyph-name="Racute" unicode="&#x154;" horiz-adv-x="611" 
d="M587 16v-16h-150l-128 329l-66 5l-54 -212c-10 -36 -12 -48 -12 -58c0 -35 6 -39 69 -48l1 -16h-248v16c57 9 64 15 81 75l121 449c7 27 12 52 12 63c0 12 -6 24 -14 29c-11 7 -16 8 -59 14v16h251c138 0 213 -52 213 -147c0 -45 -18 -84 -51 -113
c-36 -32 -69 -47 -147 -64l96 -249c20 -53 40 -70 85 -73zM319 604l-64 -233c24 -4 34 -5 52 -5c126 0 190 51 190 150c0 77 -42 116 -126 116c-33 0 -46 -7 -52 -28zM347 716l162 162c7 7 16 10 25 10c22 0 38 -16 38 -36c0 -13 -5 -21 -17 -28l-173 -108h-35z" />
    <glyph glyph-name="racute" unicode="&#x155;" horiz-adv-x="389" 
d="M133 0h-77l85 296c8 30 16 71 16 84c0 18 -13 28 -35 28c-8 0 -12 -1 -34 -5v17c73 12 84 14 157 27l3 -2l-56 -220l15 37c16 39 58 100 100 142c26 28 54 43 77 43c28 0 47 -20 47 -52s-17 -50 -47 -50c-20 0 -28 5 -36 22c-5 10 -10 14 -17 14c-17 0 -45 -31 -80 -88
c-46 -77 -63 -118 -118 -293zM269 501l166 162c6 6 16 10 25 10c21 0 37 -15 37 -36c0 -13 -5 -21 -18 -29l-174 -107h-36z" />
    <glyph glyph-name="Rcommaaccent" unicode="&#x156;" horiz-adv-x="611" 
d="M587 16v-16h-150l-128 329l-66 5l-54 -212c-10 -36 -12 -48 -12 -58c0 -35 6 -39 69 -48l1 -16h-248v16c57 9 64 15 81 75l121 449c7 27 12 52 12 63c0 12 -6 24 -14 29c-11 7 -16 8 -59 14v16h251c138 0 213 -52 213 -147c0 -45 -18 -84 -51 -113
c-36 -32 -69 -47 -147 -64l96 -249c20 -53 40 -70 85 -73zM319 604l-64 -233c24 -4 34 -5 52 -5c126 0 190 51 190 150c0 77 -42 116 -126 116c-33 0 -46 -7 -52 -28zM225 -274l-10 17c53 36 76 62 76 90c0 10 -6 19 -21 33c-20 17 -26 28 -26 46c0 27 22 47 52 47
c33 0 59 -32 59 -73c0 -57 -45 -112 -130 -160z" />
    <glyph glyph-name="rcommaaccent" unicode="&#x157;" horiz-adv-x="389" 
d="M133 0h-77l85 296c8 29 16 71 16 84c0 18 -13 28 -35 28c-8 0 -13 -1 -34 -5v17c73 12 84 14 157 27l3 -2l-56 -220l15 37c16 39 58 100 100 142c26 28 54 43 77 43c28 0 47 -20 47 -52s-17 -50 -47 -50c-20 0 -29 5 -36 22c-5 10 -9 14 -17 14c-17 0 -45 -32 -80 -88
c-46 -77 -63 -118 -118 -293zM8 -274l-9 17c54 36 77 63 77 90c0 10 -6 19 -20 33c-19 17 -25 28 -25 45c0 28 22 48 52 48c33 0 58 -31 58 -71c0 -57 -46 -114 -133 -162z" />
    <glyph glyph-name="Rcaron" unicode="&#x158;" horiz-adv-x="611" 
d="M587 16v-16h-150l-128 329l-66 5l-54 -212c-10 -36 -12 -48 -12 -58c0 -35 6 -39 69 -48l1 -16h-248v16c57 9 64 15 81 75l121 449c7 27 12 52 12 63c0 12 -6 24 -14 29c-11 7 -16 8 -59 14v16h251c138 0 213 -52 213 -147c0 -45 -18 -84 -51 -113
c-36 -32 -69 -47 -147 -64l96 -249c20 -53 40 -70 85 -73zM319 604l-64 -233c24 -4 34 -5 52 -5c126 0 190 51 190 150c0 77 -42 116 -126 116c-33 0 -46 -7 -52 -28zM571 885l-164 -171h-46l-99 171h37l93 -106l143 106h36z" />
    <glyph glyph-name="rcaron" unicode="&#x159;" horiz-adv-x="389" 
d="M133 0h-77l85 296c8 30 16 71 16 84c0 18 -13 28 -35 28c-8 0 -12 -1 -34 -5v17c73 12 84 14 157 27l3 -2l-56 -220l15 37c16 39 58 100 100 142c26 28 54 43 77 43c28 0 47 -20 47 -52s-17 -50 -47 -50c-20 0 -28 5 -36 22c-5 10 -10 14 -17 14c-17 0 -45 -31 -80 -88
c-46 -77 -63 -118 -118 -293zM476 670l-166 -171h-47l-96 171h37l91 -106l145 106h36z" />
    <glyph glyph-name="Sacute" unicode="&#x15a;" 
d="M483 475l-19 3c-2 67 -11 101 -33 126c-22 24 -52 37 -90 37c-69 0 -111 -39 -111 -102c0 -50 9 -65 102 -157c93 -93 116 -133 116 -199c0 -115 -87 -201 -203 -201c-32 0 -59 6 -106 23c-27 9 -41 13 -52 13c-21 0 -32 -10 -39 -33h-18l32 226l21 -2
c-2 -8 -2 -14 -2 -21c0 -97 64 -170 150 -170c74 0 129 57 129 134c0 44 -13 70 -62 120c-2 3 -21 23 -39 43c-18 19 -38 40 -40 42c-63 66 -78 95 -78 151c0 98 74 167 179 167c32 0 63 -5 86 -14c24 -9 34 -11 46 -11c23 0 32 5 46 26h23zM300 716l162 162
c7 7 16 10 25 10c21 0 38 -16 38 -36c0 -13 -5 -20 -17 -28l-173 -108h-35z" />
    <glyph glyph-name="sacute" unicode="&#x15b;" horiz-adv-x="389" 
d="M28 148h16c15 -96 46 -138 102 -138c45 0 76 32 76 79c0 29 -17 65 -56 115c-42 55 -63 98 -63 131c0 67 49 112 122 112c19 0 33 -2 59 -10c18 -5 28 -7 36 -7c15 0 22 4 30 18h15l-22 -141h-16c-9 79 -39 117 -93 117c-35 0 -57 -21 -57 -55c0 -28 16 -59 54 -106
c47 -58 68 -102 68 -141c0 -77 -61 -133 -147 -133c-17 0 -32 3 -56 10c-20 5 -38 9 -50 9c-10 0 -16 -5 -24 -21h-16zM205 501l165 162c7 6 16 10 25 10c21 0 37 -16 37 -36c0 -13 -5 -21 -17 -29l-175 -107h-35z" />
    <glyph glyph-name="Scircumflex" unicode="&#x15c;" 
d="M495 475l-19 3c-2 67 -11 101 -33 126c-22 24 -52 37 -90 37c-69 0 -111 -39 -111 -102c0 -50 9 -65 102 -157c93 -93 116 -133 116 -199c0 -115 -87 -201 -203 -201c-32 0 -59 6 -106 23c-27 9 -41 13 -52 13c-21 0 -32 -10 -39 -33h-18l32 226l21 -2
c-2 -8 -2 -14 -2 -21c0 -97 64 -170 150 -170c74 0 129 57 129 134c0 44 -13 70 -62 120c-2 3 -21 23 -39 43c-18 19 -38 40 -40 42c-63 66 -78 95 -78 151c0 98 74 167 179 167c32 0 63 -5 86 -14c24 -9 34 -11 46 -11c23 0 32 5 46 26h23zM435 885l90 -171h-36l-84 105
l-138 -105h-40l158 171h50z" />
    <glyph glyph-name="scircumflex" unicode="&#x15d;" horiz-adv-x="389" 
d="M28 148h16c15 -96 46 -138 102 -138c45 0 76 32 76 79c0 29 -17 65 -56 115c-42 55 -63 98 -63 131c0 67 49 112 122 112c19 0 33 -2 59 -10c18 -5 28 -7 36 -7c15 0 22 4 30 18h15l-22 -141h-16c-9 79 -39 117 -93 117c-35 0 -57 -21 -57 -55c0 -28 16 -59 54 -106
c47 -58 68 -102 68 -141c0 -77 -61 -133 -147 -133c-17 0 -32 3 -56 10c-20 5 -38 9 -50 9c-10 0 -16 -5 -24 -21h-16zM325 670l88 -171h-37l-82 105l-140 -105h-39l160 171h50z" />
    <glyph glyph-name="Scedilla" unicode="&#x15e;" 
d="M208 -15l-34 -52c10 2 17 3 26 3c51 0 83 -27 83 -70c0 -50 -50 -86 -120 -86c-29 0 -52 5 -94 21l17 30c30 -11 47 -15 68 -15c35 0 54 15 54 41s-20 45 -47 45c-11 0 -19 -2 -32 -7l-9 8l55 90c-13 4 -22 7 -36 12c-27 9 -41 13 -52 13c-21 0 -32 -10 -39 -33h-18
l32 226l21 -2c-2 -8 -2 -14 -2 -21c0 -97 64 -170 150 -170c74 0 129 57 129 134c0 44 -13 70 -62 120c-2 3 -21 23 -39 43c-18 19 -38 40 -40 42c-63 66 -78 95 -78 151c0 98 74 167 179 167c32 0 63 -5 86 -14c24 -9 34 -11 46 -11c23 0 32 5 46 26h23l-38 -201l-19 3
c-2 67 -11 101 -33 126c-22 24 -52 37 -90 37c-69 0 -111 -39 -111 -102c0 -50 9 -65 102 -157c93 -93 116 -133 116 -199c0 -115 -87 -201 -203 -201c-12 0 -20 1 -37 3z" />
    <glyph glyph-name="scedilla" unicode="&#x15f;" horiz-adv-x="389" 
d="M133 -10l-39 -57c11 2 17 3 27 3c50 0 82 -27 82 -68c0 -51 -51 -88 -122 -88c-29 0 -52 5 -94 21l17 30c31 -11 48 -15 69 -15c36 0 55 15 55 42c0 26 -20 44 -47 44c-11 0 -19 -2 -32 -7l-9 8l60 95l-13 3c-15 4 -30 7 -40 7s-16 -5 -24 -21h-16l21 161h17
c15 -96 46 -138 102 -138c45 0 76 32 76 79c0 29 -17 64 -56 115c-42 55 -63 98 -63 131c0 67 49 112 122 112c19 0 33 -2 59 -10c18 -5 27 -7 36 -7c14 0 22 4 30 18h14l-21 -141h-16c-10 80 -40 117 -93 117c-35 0 -57 -21 -57 -55c0 -28 16 -59 54 -106
c47 -58 68 -102 68 -141c0 -78 -61 -133 -149 -133c-7 0 -9 0 -18 1z" />
    <glyph glyph-name="Scaron" unicode="&#x160;" 
d="M483 475l-19 3c-2 67 -11 101 -33 126c-22 24 -52 37 -90 37c-69 0 -111 -39 -111 -102c0 -50 9 -65 102 -157c93 -93 116 -133 116 -199c0 -115 -87 -201 -203 -201c-32 0 -59 6 -106 23c-27 9 -41 13 -52 13c-21 0 -32 -10 -39 -33h-18l32 226l21 -2
c-2 -8 -2 -14 -2 -21c0 -97 64 -170 150 -170c74 0 129 57 129 134c0 44 -13 70 -62 120c-2 3 -21 23 -39 43c-18 19 -38 40 -40 42c-63 66 -78 95 -78 151c0 98 74 167 179 167c32 0 63 -5 86 -14c24 -9 34 -11 46 -11c23 0 32 5 46 26h23zM532 885l-164 -171h-47l-99 171
h38l92 -106l143 106h37z" />
    <glyph glyph-name="scaron" unicode="&#x161;" horiz-adv-x="389" 
d="M28 148h16c15 -96 46 -138 102 -138c45 0 76 32 76 79c0 29 -17 65 -56 115c-42 55 -63 98 -63 131c0 67 49 112 122 112c19 0 33 -2 59 -10c18 -5 28 -7 36 -7c15 0 22 4 30 18h15l-22 -141h-16c-9 79 -39 117 -93 117c-35 0 -57 -21 -57 -55c0 -28 16 -59 54 -106
c47 -58 68 -102 68 -141c0 -77 -61 -133 -147 -133c-17 0 -32 3 -56 10c-20 5 -38 9 -50 9c-10 0 -16 -5 -24 -21h-16zM456 670l-167 -171h-47l-96 171h38l90 -106l145 106h37z" />
    <glyph glyph-name="Tcommaaccent" unicode="&#x162;" horiz-adv-x="556" 
d="M649 662l-44 -165l-17 2c2 17 3 32 3 45c0 57 -33 83 -106 83h-56l-136 -505c-10 -37 -12 -46 -12 -58c0 -39 4 -41 92 -48v-16h-294v16c67 5 91 22 106 75l141 536c-154 2 -187 -15 -240 -125l-18 4l41 156h540zM124 -274l-9 17c53 36 75 63 75 90c0 10 -5 19 -21 33
c-19 17 -25 28 -25 46c0 27 22 47 51 47c33 0 59 -32 59 -73c0 -57 -45 -113 -130 -160z" />
    <glyph glyph-name="tcommaaccent" unicode="&#x163;" horiz-adv-x="278" 
d="M0 -274l-9 17c54 36 77 63 77 90c0 10 -6 19 -20 33c-19 17 -25 28 -25 45c0 28 22 48 52 48c33 0 58 -31 58 -71c0 -57 -46 -114 -133 -162zM311 434l-6 -32h-85l-92 -338c-1 -5 -1 -5 -1 -6c0 -12 6 -19 15 -19c16 0 33 17 83 80l13 -7c-65 -95 -98 -123 -145 -123
c-27 0 -48 16 -48 38c0 7 7 35 22 87l2 9l75 279h-75v6c0 11 7 17 32 26c34 8 97 60 136 111c5 6 8 9 12 9h3h2c4 0 6 -4 6 -10c0 -1 0 -3 -1 -6l-29 -104h81z" />
    <glyph glyph-name="Tcaron" unicode="&#x164;" horiz-adv-x="556" 
d="M649 662l-44 -165l-17 2c2 17 3 32 3 45c0 57 -33 83 -106 83h-56l-136 -505c-10 -37 -12 -46 -12 -58c0 -39 4 -41 92 -48v-16h-294v16c67 5 91 22 106 75l141 536c-154 2 -187 -15 -240 -125l-18 4l41 156h540zM577 885l-164 -171h-46l-99 171h37l93 -106l143 106h36z
" />
    <glyph glyph-name="tcaron" unicode="&#x165;" horiz-adv-x="300" 
d="M320 472l-9 17c53 34 77 63 77 90c0 10 -6 19 -20 32c-19 18 -25 28 -25 46c0 28 22 48 52 48c33 0 58 -31 58 -71c0 -58 -47 -115 -133 -162zM310 434l-5 -32h-86l-91 -338c-2 -4 -2 -4 -2 -6c0 -12 6 -19 15 -19c16 0 34 17 83 80l13 -7c-64 -95 -98 -123 -145 -123
c-27 0 -48 16 -48 38c0 4 8 36 24 96l75 279h-75v6c0 11 7 17 32 26c34 8 97 60 136 111c5 6 8 9 12 9h3h2c4 0 6 -4 6 -10c0 -1 0 -3 -1 -6l-29 -104h81z" />
    <glyph glyph-name="Tbar" unicode="&#x166;" horiz-adv-x="556" 
d="M361 333l-57 -211c-10 -36 -12 -46 -12 -58c0 -38 5 -41 92 -48v-16h-294v16c67 5 91 22 106 75l64 242h-109l7 35h111l68 259c-154 2 -187 -15 -240 -125l-18 4l41 156h540l-44 -165l-17 2c2 17 3 32 3 45c0 57 -33 83 -106 83h-56l-70 -259h93l-7 -35h-95z" />
    <glyph glyph-name="tbar" unicode="&#x167;" horiz-adv-x="278" 
d="M196 305h103l-8 -35h-104l-56 -206c-1 -3 -1 -4 -1 -6c0 -12 6 -19 15 -19c16 0 33 17 83 80l13 -7c-65 -95 -98 -123 -146 -123c-27 0 -48 16 -48 38c0 8 8 42 18 75c3 8 5 15 7 21l39 147h-83l8 35h85l26 97h-75c-1 3 -1 4 -1 6c0 11 6 16 32 26c34 9 96 59 136 111
c5 6 9 9 13 9h2h2c4 0 6 -4 6 -10c0 -2 0 -4 -1 -6l-29 -104h81l-5 -32h-85z" />
    <glyph glyph-name="Utilde" unicode="&#x168;" horiz-adv-x="722" 
d="M781 662v-16c-63 -14 -67 -19 -104 -151l-82 -289c-43 -152 -126 -224 -259 -224c-129 0 -223 71 -223 168c0 42 12 106 41 214l52 195c5 17 7 32 7 45c0 30 -11 36 -79 42v16h276l1 -16c-69 -7 -85 -22 -106 -92c0 -2 -4 -15 -5 -19c-61 -212 -96 -353 -96 -391
c0 -71 58 -120 143 -120c71 0 126 32 165 95c21 34 37 74 54 140c5 20 9 37 13 49c46 170 72 274 72 291c0 13 -7 28 -18 34c-11 8 -22 10 -54 13v16h202zM656 844h29c-14 -68 -47 -105 -95 -105c-13 0 -32 5 -59 15c-54 22 -79 29 -96 29c-26 0 -42 -15 -52 -47h-29
c20 78 48 107 101 107c22 0 48 -7 87 -24c31 -14 47 -19 63 -19c27 0 40 11 51 44z" />
    <glyph glyph-name="utilde" unicode="&#x169;" 
d="M482 436l-97 -330c-2 -7 -4 -15 -6 -24c-3 -12 -5 -20 -5 -23c-1 -4 -2 -7 -2 -10c0 -6 6 -12 12 -12c13 0 34 17 64 52l9 -13c-46 -58 -91 -89 -128 -89c-21 0 -37 16 -37 36c0 11 4 32 8 46l39 133c-55 -83 -84 -121 -123 -158c-41 -39 -76 -58 -106 -58
c-32 0 -52 26 -52 68c0 11 2 23 5 35l79 269c3 8 4 15 4 20c0 9 -7 16 -16 16c-16 0 -16 0 -69 -60l-11 11c37 44 46 54 65 71c21 19 47 30 68 30c24 0 40 -15 40 -38c0 -9 -3 -27 -6 -39l-76 -257c-7 -24 -8 -28 -8 -39c0 -18 10 -28 31 -28c27 0 68 35 117 101
c61 83 73 107 102 206l25 84h74zM465 633h28c-13 -69 -47 -106 -95 -106c-13 0 -31 5 -58 16c-55 22 -79 29 -97 29c-25 0 -41 -15 -51 -48h-29c20 78 47 108 100 108c23 0 50 -8 88 -25c31 -14 47 -19 62 -19c28 0 41 11 52 45z" />
    <glyph glyph-name="Umacron" unicode="&#x16a;" horiz-adv-x="722" 
d="M781 662v-16c-63 -14 -67 -19 -104 -151l-82 -289c-43 -152 -126 -224 -259 -224c-129 0 -223 71 -223 168c0 42 12 106 41 214l52 195c5 17 7 32 7 45c0 30 -11 36 -79 42v16h276l1 -16c-69 -7 -85 -22 -106 -92c0 -2 -4 -15 -5 -19c-61 -212 -96 -353 -96 -391
c0 -71 58 -120 143 -120c71 0 126 32 165 95c21 34 37 74 54 140c5 20 9 37 13 49c46 170 72 274 72 291c0 13 -7 28 -18 34c-11 8 -22 10 -54 13v16h202zM658 806l-11 -52h-305l11 52h305z" />
    <glyph glyph-name="umacron" unicode="&#x16b;" 
d="M474 119l15 -9c-71 -100 -94 -119 -141 -119c-31 0 -49 17 -49 48c0 22 16 89 48 200c-119 -195 -172 -250 -244 -250c-36 0 -54 18 -54 55c0 18 7 51 27 125l38 144c10 35 15 60 15 68c0 7 -5 16 -10 19c-10 5 -10 5 -51 6v14c60 7 97 14 153 27l3 -2l-96 -368l-1 -9
c-1 -14 8 -25 21 -25c33 0 83 51 144 148c48 74 55 90 114 247h75l-82 -303c-21 -74 -21 -74 -21 -80c0 -10 4 -16 11 -16c17 0 31 13 85 80zM483 591l-12 -52h-305l12 52h305z" />
    <glyph glyph-name="Ubreve" unicode="&#x16c;" horiz-adv-x="722" 
d="M781 662v-16c-63 -14 -67 -19 -104 -151l-82 -289c-43 -152 -126 -224 -259 -224c-129 0 -223 71 -223 168c0 42 12 106 41 214l52 195c5 17 7 32 7 45c0 30 -11 36 -79 42v16h276l1 -16c-69 -7 -85 -22 -106 -92c0 -2 -4 -15 -5 -19c-61 -212 -96 -353 -96 -391
c0 -71 58 -120 143 -120c71 0 126 32 165 95c21 34 37 74 54 140c5 20 9 37 13 49c46 170 72 274 72 291c0 13 -7 28 -18 34c-11 8 -22 10 -54 13v16h202zM652 876h29c-8 -42 -17 -64 -37 -91c-34 -45 -80 -69 -135 -69c-45 0 -81 16 -103 45c-21 26 -29 58 -30 115h30
c4 -63 45 -100 110 -100c62 0 112 37 136 100z" />
    <glyph glyph-name="ubreve" unicode="&#x16d;" 
d="M482 436l-97 -330c-2 -7 -4 -15 -6 -24c-3 -12 -5 -20 -5 -23c-1 -4 -2 -7 -2 -10c0 -6 6 -12 12 -12c13 0 34 17 64 52l9 -13c-46 -58 -91 -89 -128 -89c-21 0 -37 16 -37 36c0 11 4 32 8 46l39 133c-55 -83 -84 -121 -123 -158c-41 -39 -76 -58 -106 -58
c-32 0 -52 26 -52 68c0 11 2 23 5 35l79 269c3 8 4 15 4 20c0 9 -7 16 -16 16c-16 0 -16 0 -69 -60l-11 11c37 44 46 54 65 71c21 19 47 30 68 30c24 0 40 -15 40 -38c0 -9 -3 -27 -6 -39l-76 -257c-7 -24 -8 -28 -8 -39c0 -18 10 -28 31 -28c27 0 68 35 117 101
c61 83 73 107 102 206l25 84h74zM233 659h16c5 -61 27 -84 82 -84c54 0 82 21 116 84h17c-26 -101 -66 -142 -139 -142c-63 0 -94 35 -94 108c0 10 0 18 2 34z" />
    <glyph glyph-name="Uring" unicode="&#x16e;" horiz-adv-x="722" 
d="M781 662v-16c-63 -14 -67 -19 -104 -151l-82 -289c-43 -152 -126 -224 -259 -224c-129 0 -223 71 -223 168c0 42 12 106 41 214l52 195c5 17 7 32 7 45c0 30 -11 36 -79 42v16h276l1 -16c-69 -7 -85 -22 -106 -92c0 -2 -4 -15 -5 -19c-61 -212 -96 -353 -96 -391
c0 -71 58 -120 143 -120c71 0 126 32 165 95c21 34 37 74 54 140c5 20 9 37 13 49c46 170 72 274 72 291c0 13 -7 28 -18 34c-11 8 -22 10 -54 13v16h202zM498 932c56 0 103 -46 103 -102c0 -55 -45 -100 -101 -100c-57 0 -102 45 -102 103c0 54 45 99 100 99zM498 898
c-35 0 -65 -30 -65 -66c0 -38 29 -68 66 -68c39 0 68 28 68 66s-31 68 -69 68z" />
    <glyph glyph-name="uring" unicode="&#x16f;" 
d="M474 119l15 -9c-71 -100 -94 -119 -141 -119c-31 0 -49 17 -49 48c0 22 16 89 48 200c-119 -195 -172 -250 -244 -250c-36 0 -54 18 -54 55c0 18 7 51 27 125l38 144c10 35 15 60 15 68c0 7 -5 16 -10 19c-10 5 -10 5 -51 6v14c60 7 97 14 153 27l3 -2l-96 -368l-1 -9
c-1 -14 8 -25 21 -25c33 0 83 51 144 148c48 74 55 90 114 247h75l-82 -303c-21 -74 -21 -74 -21 -80c0 -10 4 -16 11 -16c17 0 31 13 85 80zM339 717c56 0 102 -45 102 -101c0 -55 -46 -101 -102 -101c-57 0 -101 44 -101 101c0 55 46 101 101 101zM339 683
c-36 0 -67 -31 -67 -67c0 -38 29 -67 66 -67c39 0 69 29 69 67c0 37 -30 67 -68 67z" />
    <glyph glyph-name="Uhungarumlaut" unicode="&#x170;" horiz-adv-x="722" 
d="M781 662v-16c-63 -14 -67 -19 -104 -151l-82 -289c-43 -152 -126 -224 -259 -224c-129 0 -223 71 -223 168c0 42 12 106 41 214l52 195c5 17 7 32 7 45c0 30 -11 36 -79 42v16h276l1 -16c-69 -7 -85 -22 -106 -92c0 -2 -4 -15 -5 -19c-61 -212 -96 -353 -96 -391
c0 -71 58 -120 143 -120c71 0 126 32 165 95c21 34 37 74 54 140c5 20 9 37 13 49c46 170 72 274 72 291c0 13 -7 28 -18 34c-11 8 -22 10 -54 13v16h202zM378 716l162 162c7 7 16 10 26 10c20 0 37 -16 37 -36c0 -13 -5 -21 -17 -28l-173 -108h-35zM550 716l163 162
c6 7 15 10 25 10c21 0 37 -16 37 -36c0 -13 -5 -21 -17 -28l-172 -108h-36z" />
    <glyph glyph-name="uhungarumlaut" unicode="&#x171;" 
d="M474 119l15 -9c-71 -100 -94 -119 -141 -119c-31 0 -49 17 -49 48c0 22 16 89 48 200c-119 -195 -172 -250 -244 -250c-36 0 -54 18 -54 55c0 18 7 51 27 125l38 144c10 35 15 60 15 68c0 7 -5 16 -10 19c-10 5 -10 5 -51 6v14c60 7 97 14 153 27l3 -2l-96 -368l-1 -9
c-1 -14 8 -25 21 -25c33 0 83 51 144 148c48 74 55 90 114 247h75l-82 -303c-21 -74 -21 -74 -21 -80c0 -10 4 -16 11 -16c17 0 31 13 85 80zM201 501l165 162c7 6 16 10 25 10c21 0 37 -15 37 -36c0 -12 -5 -21 -17 -29l-175 -107h-35zM373 501l166 162c6 7 15 10 25 10
c21 0 37 -16 37 -36c0 -12 -5 -21 -18 -29l-174 -107h-36z" />
    <glyph glyph-name="Uogonek" unicode="&#x172;" horiz-adv-x="722" 
d="M579 662h202v-16c-63 -14 -67 -19 -104 -151l-82 -289c-15 -51 -29 -83 -60 -135c-39 -68 -48 -92 -48 -122c0 -34 24 -56 61 -56c32 0 56 9 83 32l18 -18c-35 -52 -77 -78 -127 -78c-53 0 -97 44 -97 96c0 31 11 57 35 85c-40 -20 -78 -28 -125 -28
c-128 0 -222 71 -222 168c0 42 12 106 41 214l52 195c5 17 7 32 7 45c0 30 -11 36 -79 42v16h276l1 -16c-69 -7 -85 -22 -106 -92c0 -2 -4 -15 -5 -19c-61 -212 -96 -353 -96 -391c0 -71 58 -120 143 -120c71 0 126 32 165 95c21 34 37 74 54 140c5 20 9 37 13 49
c46 170 72 274 72 291c0 13 -7 28 -18 34c-11 8 -22 10 -54 13v16z" />
    <glyph glyph-name="uogonek" unicode="&#x173;" 
d="M474 119l15 -9c-52 -73 -71 -93 -98 -109c-34 -18 -40 -27 -40 -53c0 -34 23 -55 60 -55c32 0 56 9 84 32l17 -18c-36 -52 -78 -78 -127 -78c-53 0 -96 43 -96 95c0 27 8 48 27 75c-11 9 -17 23 -17 40c0 21 16 88 48 200c-119 -195 -172 -250 -244 -250
c-36 0 -54 18 -54 55c0 18 7 51 27 125l38 144c10 35 15 60 15 68c0 7 -5 16 -10 19c-10 5 -10 5 -51 6v14c60 7 97 14 153 27l3 -2l-96 -368l-1 -9c-1 -14 8 -25 21 -25c33 0 83 51 144 148c48 74 55 90 114 247h75l-82 -303c-21 -74 -21 -74 -21 -80c0 -10 4 -16 11 -16
c17 0 31 13 85 80z" />
    <glyph glyph-name="Wcircumflex" unicode="&#x174;" horiz-adv-x="833" 
d="M968 662v-16c-39 -12 -48 -21 -75 -73l-302 -591h-20l-56 460h-5l-220 -460h-20l-67 524c-13 93 -18 113 -30 124c-9 9 -19 12 -52 16v16h239v-16c-61 -8 -73 -16 -73 -55c0 -3 0 -10 1 -15l48 -412l172 353l-10 70c-7 49 -18 57 -77 59v16h241l1 -16
c-54 -6 -66 -15 -68 -59v-15l45 -408l186 373c14 29 21 51 21 68c0 29 -11 35 -67 41v16h188zM610 885l91 -171h-36l-84 105l-138 -105h-40l158 171h49z" />
    <glyph glyph-name="wcircumflex" unicode="&#x175;" horiz-adv-x="667" 
d="M31 409v14c12 2 22 3 26 4c33 5 69 12 70 14c12 4 24 7 30 7c12 0 14 -7 24 -72c11 -71 22 -179 24 -248l198 308c5 8 7 10 12 10c6 0 8 -3 9 -14l29 -357c135 166 170 220 170 263c0 12 -6 23 -22 38c-16 14 -21 23 -21 36c0 22 15 35 39 35c31 0 53 -22 53 -53
c0 -64 -76 -189 -218 -357c-4 -6 -9 -11 -10 -12c-27 -33 -37 -43 -45 -43s-9 3 -11 30l-27 324l-92 -159c-31 -54 -51 -90 -56 -99c-37 -71 -54 -96 -65 -96c-10 0 -12 7 -14 47l-3 90c-3 80 -15 194 -25 244c-9 40 -15 47 -46 47h-9zM467 670l88 -171h-37l-82 105
l-140 -105h-39l160 171h50z" />
    <glyph glyph-name="Ycircumflex" unicode="&#x176;" horiz-adv-x="556" 
d="M117 646v16h242l1 -16c-61 -6 -73 -12 -73 -36c0 -15 12 -62 38 -146c17 -58 20 -68 32 -112c15 18 21 25 39 46c103 121 150 188 150 216c0 9 -4 17 -10 20c-12 6 -12 6 -61 12v16h192v-16c-30 -14 -38 -22 -71 -62l-219 -274l-29 -102c-1 -5 -3 -12 -5 -20
c-25 -84 -31 -109 -31 -131c0 -13 5 -24 13 -28c10 -6 24 -9 41 -10c9 0 21 -1 37 -3v-16h-293v16c67 5 89 20 106 75l60 215l-81 273c-18 56 -21 59 -78 67zM483 885l91 -171h-37l-84 105l-138 -105h-39l157 171h50z" />
    <glyph glyph-name="ycircumflex" unicode="&#x177;" horiz-adv-x="444" 
d="M24 406v17c15 2 28 5 32 5c55 10 92 17 100 18c5 0 8 0 9 1h4c15 0 71 -166 86 -256l19 -118c87 142 126 222 126 263c0 14 -7 23 -26 34c-21 13 -29 23 -29 39c0 23 16 38 40 38c31 0 56 -25 56 -56c0 -49 -29 -122 -99 -247c-113 -202 -245 -353 -311 -353
c-30 0 -51 18 -51 44c0 23 17 40 40 40c12 0 23 -5 38 -17c11 -8 17 -11 23 -11c14 0 26 8 47 31c11 11 32 36 64 79c15 20 22 35 22 51c0 41 -49 250 -78 331c-19 54 -38 71 -80 71c-11 0 -19 -1 -32 -4zM325 670l88 -171h-37l-82 105l-140 -105h-39l160 171h50z" />
    <glyph glyph-name="Ydieresis" unicode="&#x178;" horiz-adv-x="556" 
d="M99 646v16h242l1 -16c-61 -6 -73 -12 -73 -36c0 -15 12 -62 38 -146c17 -58 20 -68 32 -112c15 18 21 25 39 46c103 121 150 188 150 216c0 9 -4 17 -10 20c-12 6 -12 6 -61 12v16h192v-16c-30 -14 -38 -22 -71 -62l-219 -274l-29 -102c-1 -5 -3 -12 -5 -20
c-25 -84 -31 -109 -31 -131c0 -13 5 -24 13 -28c10 -6 24 -9 41 -10c9 0 21 -1 37 -3v-16h-293v16c67 5 89 20 106 75l60 215l-81 273c-18 56 -21 59 -78 67zM303 829c25 0 49 -24 49 -50c0 -27 -22 -49 -49 -49c-28 0 -50 22 -50 51c0 27 22 48 50 48zM506 829
c25 0 49 -24 49 -50c0 -27 -22 -49 -49 -49c-28 0 -50 22 -50 51c0 27 22 48 50 48z" />
    <glyph glyph-name="Zacute" unicode="&#x179;" horiz-adv-x="556" 
d="M621 662v-14l-484 -611h163c158 1 201 24 252 137l19 -3l-53 -171h-512v14l480 612h-173c-134 -4 -169 -23 -211 -117l-20 5l46 148h493zM310 716l163 162c6 7 15 10 25 10c21 0 37 -16 37 -36c0 -13 -5 -21 -17 -28l-173 -108h-35z" />
    <glyph glyph-name="zacute" unicode="&#x17a;" horiz-adv-x="389" 
d="M99 313l-16 4l32 117h288v-11l-297 -349c58 -13 78 -27 122 -84c33 -43 45 -51 71 -51c16 0 27 6 27 15c0 4 -2 10 -5 16c-6 11 -9 20 -9 29c0 19 14 32 34 32c22 0 36 -15 36 -36c0 -41 -45 -77 -96 -77c-29 0 -63 13 -113 45c-48 29 -80 42 -105 42
c-18 0 -31 -5 -47 -18l-9 9l317 377h-148c-46 1 -61 -10 -82 -60zM229 501l166 162c6 7 15 10 24 10c21 0 37 -16 37 -36c0 -13 -5 -21 -17 -29l-175 -107h-35z" />
    <glyph glyph-name="Zdotaccent" unicode="&#x17b;" horiz-adv-x="556" 
d="M621 662v-14l-484 -611h163c158 1 201 24 252 137l19 -3l-53 -171h-512v14l480 612h-173c-134 -4 -169 -23 -211 -117l-20 5l46 148h493zM378 829c25 0 49 -24 49 -50c0 -27 -22 -49 -49 -49c-28 0 -50 22 -50 51c0 27 22 48 50 48z" />
    <glyph glyph-name="zdotaccent" unicode="&#x17c;" horiz-adv-x="389" 
d="M99 313l-16 4l32 117h288v-11l-297 -349c58 -13 78 -27 122 -84c33 -43 45 -51 71 -51c16 0 27 6 27 15c0 4 -2 10 -5 16c-6 11 -9 20 -9 29c0 19 14 32 34 32c22 0 36 -15 36 -36c0 -41 -45 -77 -96 -77c-29 0 -63 13 -113 45c-48 29 -80 42 -105 42
c-18 0 -31 -5 -47 -18l-9 9l317 377h-148c-46 1 -61 -10 -82 -60zM275 614c25 0 48 -24 48 -49c0 -28 -22 -50 -50 -50s-49 22 -49 50c0 27 23 49 51 49z" />
    <glyph glyph-name="Zcaron" unicode="&#x17d;" horiz-adv-x="556" 
d="M621 662v-14l-484 -611h163c158 1 201 24 252 137l19 -3l-53 -171h-512v14l480 612h-173c-134 -4 -169 -23 -211 -117l-20 5l46 148h493zM560 885l-164 -171h-47l-99 171h38l92 -106l143 106h37z" />
    <glyph glyph-name="zcaron" unicode="&#x17e;" horiz-adv-x="389" 
d="M99 313l-16 4l32 117h288v-11l-297 -349c58 -13 78 -27 122 -84c33 -43 45 -51 71 -51c16 0 27 6 27 15c0 4 -2 10 -5 16c-6 11 -9 20 -9 29c0 19 14 32 34 32c22 0 36 -15 36 -36c0 -41 -45 -77 -96 -77c-29 0 -63 13 -113 45c-48 29 -80 42 -105 42
c-18 0 -31 -5 -47 -18l-9 9l317 377h-148c-46 1 -61 -10 -82 -60zM460 670l-167 -171h-47l-96 171h38l90 -106l145 106h37z" />
    <glyph glyph-name="longs" unicode="&#x17f;" horiz-adv-x="278" 
d="M53 402l7 32h94c31 98 52 144 82 184c37 47 77 69 126 69c50 0 87 -28 87 -65c0 -22 -20 -41 -43 -41c-22 0 -37 16 -37 40c0 8 1 13 6 21c3 5 4 8 4 10c0 8 -9 13 -22 13c-22 0 -41 -11 -58 -33c-16 -22 -29 -50 -44 -99c-9 -27 -9 -27 -107 -456
c-42 -185 -115 -287 -205 -287c-44 0 -79 27 -79 61c0 24 16 43 37 43c22 0 40 -17 40 -39c0 -6 -1 -10 -5 -17c-3 -5 -4 -7 -4 -10c0 -10 8 -17 20 -17c43 0 76 55 100 165l92 426h-91z" />
    <glyph glyph-name="florin" unicode="&#x192;" 
d="M114 426h120l8 27c20 75 43 129 71 163c42 50 87 74 139 74c51 0 87 -26 87 -63c0 -27 -22 -49 -50 -49c-24 0 -44 16 -44 37c0 7 1 12 5 19c3 6 5 11 5 15c0 6 -6 10 -16 10c-25 0 -43 -14 -61 -47c-14 -27 -20 -43 -45 -134l-5 -18l-9 -34h123l-10 -38h-123l-66 -251
c-21 -83 -58 -188 -78 -225c-39 -70 -80 -100 -139 -100c-45 0 -77 25 -77 59c0 27 21 48 49 48c22 0 38 -14 38 -34c0 -7 -2 -14 -7 -20c-3 -4 -6 -10 -6 -13s4 -4 11 -4c36 0 58 32 81 121l110 419h-121z" />
    <glyph glyph-name="Aringacute" unicode="&#x1fa;" horiz-adv-x="611" 
d="M564 16v-16h-246v16c64 6 78 15 78 53c0 8 -1 17 -2 26l-20 131h-220l-57 -113c-17 -34 -20 -43 -20 -62c0 -25 8 -30 59 -35v-16h-187v16c40 8 50 19 129 152l290 500h26l94 -566c13 -73 19 -81 76 -86zM175 262h194l-44 260zM388 826c56 0 101 -32 101 -71
c0 -37 -46 -69 -100 -69c-57 0 -100 31 -100 71c0 38 45 69 99 69zM388 802c-35 0 -65 -21 -65 -46c0 -26 29 -46 65 -46c38 0 67 20 67 45c0 26 -29 47 -67 47zM307 832l162 112c6 5 14 7 24 7c21 0 37 -11 37 -25c0 -9 -5 -14 -17 -20l-171 -74h-35z" />
    <glyph glyph-name="aringacute" unicode="&#x1fb;" 
d="M464 110l12 -10c-75 -91 -99 -110 -139 -110c-28 0 -40 12 -40 41c0 25 2 33 23 115c-88 -124 -131 -157 -201 -157c-64 0 -102 41 -102 111c0 159 153 341 286 341c43 0 72 -21 80 -58l11 48l3 3l61 7l7 -3c-2 -9 -3 -11 -6 -21c-46 -169 -89 -343 -89 -363
c0 -7 6 -13 14 -13c9 0 21 9 52 41c6 6 12 13 28 28zM309 419c-41 3 -87 -29 -127 -87c-44 -63 -81 -164 -81 -220c0 -46 22 -74 58 -74c29 0 63 17 87 44c68 74 119 192 119 276c0 35 -22 59 -56 61zM352 707c56 0 101 -45 101 -100c0 -54 -45 -99 -100 -99
c-57 0 -100 44 -100 100c0 54 45 99 99 99zM352 673c-35 0 -65 -30 -65 -65c0 -37 28 -66 65 -66c38 0 67 28 67 65s-30 66 -67 66zM319 735l162 160c6 7 15 10 24 10c21 0 37 -15 37 -36c0 -12 -5 -20 -17 -28l-171 -106h-35z" />
    <glyph glyph-name="AEacute" unicode="&#x1fc;" horiz-adv-x="889" 
d="M826 169l18 -5l-64 -164h-498v16c61 6 68 11 80 48l49 170h-190c-11 -14 -21 -26 -25 -30c-61 -73 -100 -134 -100 -157c0 -20 11 -25 64 -31v-16h-187v16c24 6 36 16 84 76l369 465c30 38 32 41 32 53c0 8 -3 15 -9 18c-6 4 -24 7 -55 10v15h517l-33 -153l-17 2
c1 13 1 30 1 36c0 70 -28 82 -191 82c-48 0 -56 -5 -65 -37l-61 -222c159 1 169 6 211 97l18 -4l-69 -232l-17 4c4 23 6 37 6 52c0 41 -21 50 -118 50h-40l-7 -24c-49 -173 -64 -230 -64 -242c0 -20 16 -29 51 -29h30c150 0 208 29 280 136zM249 271h173l95 342zM585 688
l162 160c7 7 15 10 25 10c20 0 36 -16 36 -36c0 -12 -5 -21 -17 -28l-171 -106h-35z" />
    <glyph glyph-name="aeacute" unicode="&#x1fd;" horiz-adv-x="667" 
d="M588 113l10 -12c-56 -68 -132 -112 -195 -112s-107 51 -107 122c0 15 1 23 6 40c-86 -125 -131 -162 -195 -162c-49 0 -84 39 -84 94c0 158 156 358 280 358c34 0 50 -11 66 -47l19 43l71 2l-22 -62c48 46 81 64 122 64c50 0 81 -27 81 -70c0 -38 -21 -71 -63 -99
c-37 -25 -85 -43 -193 -74c-7 -30 -8 -38 -8 -60c0 -68 24 -102 70 -102c43 0 82 21 142 77zM305 421c-80 4 -189 -175 -196 -322c-2 -38 10 -60 34 -60c26 0 57 16 80 41c72 78 127 205 127 290c0 30 -18 50 -45 51zM390 223c90 23 133 48 164 94c13 20 20 41 20 63
c0 23 -12 36 -35 36s-46 -12 -66 -32c-35 -38 -53 -72 -83 -161zM376 494l162 160c7 7 15 10 25 10c20 0 36 -16 36 -36c0 -12 -5 -21 -17 -28l-171 -106h-35z" />
    <glyph glyph-name="Oslashacute" unicode="&#x1fe;" horiz-adv-x="722" 
d="M669 722l-64 -96c33 -26 45 -39 60 -64c22 -37 34 -85 34 -131c0 -226 -208 -449 -418 -449c-31 0 -56 6 -94 21l-74 -108h-44l86 127c-66 48 -95 109 -95 200c0 117 59 238 160 331c80 72 170 113 249 113c37 0 66 -6 104 -22l52 78h44zM190 74l356 533
c-25 19 -48 26 -82 26c-71 0 -134 -39 -189 -119c-63 -91 -110 -234 -110 -338c0 -38 7 -68 25 -102zM570 574l-355 -530c23 -21 46 -29 80 -29c71 0 132 38 187 117c64 92 112 240 112 343c0 40 -7 69 -24 99zM435 703l162 160c7 7 15 10 25 10c20 0 36 -16 36 -36
c0 -12 -5 -21 -17 -28l-171 -106h-35z" />
    <glyph glyph-name="oslashacute" unicode="&#x1ff;" 
d="M428 554l-58 -119c41 -12 60 -26 78 -56c13 -22 21 -53 21 -81c0 -76 -44 -165 -114 -230c-57 -52 -117 -79 -179 -79c-8 0 -14 1 -20 2l-61 -126h-35l64 131c-31 10 -44 18 -59 34c-24 25 -37 61 -37 100c0 153 150 311 294 311c7 0 11 0 17 -1l55 114h34zM140 29
l188 389c-5 1 -7 2 -10 2c-33 0 -69 -17 -95 -46c-66 -70 -111 -182 -111 -277c0 -28 9 -49 28 -68zM357 406l-190 -392c8 -3 13 -4 22 -4c45 0 82 24 119 77c45 65 77 164 77 238c0 35 -9 60 -28 81zM229 494l162 160c7 7 15 10 25 10c20 0 36 -16 36 -36
c0 -12 -5 -21 -17 -28l-171 -106h-35z" />
    <glyph glyph-name="Scommaaccent" unicode="&#x218;" 
d="M503 677h30l-40 -201h-33c2 17 3 24 3 37c0 49 -12 80 -40 101c-20 16 -49 25 -76 25c-63 0 -114 -48 -114 -107c0 -33 11 -52 57 -99l79 -81c71 -74 92 -114 92 -176c0 -59 -29 -117 -76 -153c-37 -28 -79 -41 -135 -41c-43 0 -86 7 -122 20l-8 3l-9 2
c-17 6 -17 6 -22 6c-15 0 -24 -8 -31 -28h-31l33 230h33c-1 -30 -1 -32 -1 -41c0 -97 52 -151 145 -151c76 0 129 50 129 120c0 40 -20 77 -68 128l-99 103c-41 43 -61 85 -61 130c0 99 87 176 198 176c32 0 58 -4 101 -17c14 -4 31 -7 37 -7c12 0 17 4 29 21zM119 -299
l-11 23c48 22 82 57 82 86c0 9 -3 13 -18 23c-23 15 -31 27 -31 47c0 30 23 52 55 52c35 0 59 -27 59 -65c0 -36 -20 -80 -52 -114c-21 -22 -43 -35 -84 -52z" />
    <glyph glyph-name="scommaaccent" unicode="&#x219;" horiz-adv-x="389" 
d="M336 450h33l-24 -144h-31c2 13 2 20 2 28c0 58 -29 90 -80 90c-33 0 -55 -21 -55 -51c0 -21 13 -51 33 -79l35 -46c47 -63 59 -88 59 -126c0 -73 -65 -129 -149 -129c-30 0 -59 6 -90 19c-8 4 -10 4 -15 4c-10 0 -13 -4 -17 -23h-30l21 165h30v-21c0 -68 35 -108 97 -108
c42 0 71 29 71 71c0 26 -7 41 -38 82l-40 53c-38 51 -49 76 -49 112c0 62 55 108 129 108c25 0 49 -4 73 -12c9 -3 17 -5 21 -5c7 0 10 3 14 12zM42 -299l-11 23c48 22 82 57 82 86c0 9 -3 13 -18 23c-23 15 -31 27 -31 47c0 30 23 52 55 52c35 0 59 -27 59 -65
c0 -36 -20 -80 -52 -114c-21 -22 -43 -35 -84 -52z" />
    <glyph glyph-name="uni021A" unicode="&#x21a;" horiz-adv-x="556" 
d="M649 662l-44 -165l-17 2c2 17 3 32 3 45c0 57 -33 83 -106 83h-56l-136 -505c-10 -37 -12 -46 -12 -58c0 -39 4 -41 92 -48v-16h-294v16c67 5 91 22 106 75l141 536c-154 2 -187 -15 -240 -125l-18 4l41 156h540zM124 -274l-9 17c53 36 75 63 75 90c0 10 -5 19 -21 33
c-19 17 -25 28 -25 46c0 27 22 47 51 47c33 0 59 -32 59 -73c0 -57 -45 -113 -130 -160z" />
    <glyph glyph-name="uni021B" unicode="&#x21b;" horiz-adv-x="278" 
d="M0 -274l-9 17c54 36 77 63 77 90c0 10 -6 19 -20 33c-19 17 -25 28 -25 45c0 28 22 48 52 48c33 0 58 -31 58 -71c0 -57 -46 -114 -133 -162zM311 434l-6 -32h-85l-92 -338c-1 -5 -1 -5 -1 -6c0 -12 6 -19 15 -19c16 0 33 17 83 80l13 -7c-65 -95 -98 -123 -145 -123
c-27 0 -48 16 -48 38c0 7 7 35 22 87l2 9l75 279h-75v6c0 11 7 17 32 26c34 8 97 60 136 111c5 6 8 9 12 9h3h2c4 0 6 -4 6 -10c0 -1 0 -3 -1 -6l-29 -104h81z" />
    <glyph glyph-name="circumflex" unicode="&#x2c6;" horiz-adv-x="333" 
d="M309 670l91 -171h-36l-85 105l-137 -105h-40l158 171h49z" />
    <glyph glyph-name="caron" unicode="&#x2c7;" horiz-adv-x="333" 
d="M440 670l-163 -171h-47l-99 171h38l92 -106l143 106h36z" />
    <glyph glyph-name="uni02C9" unicode="&#x2c9;" horiz-adv-x="333" 
d="M146 709h307l-13 -43h-306z" />
    <glyph glyph-name="breve" unicode="&#x2d8;" horiz-adv-x="333" 
d="M403 659h29c-8 -42 -17 -64 -37 -91c-34 -45 -80 -69 -135 -69c-45 0 -81 15 -103 45c-21 26 -29 58 -30 115h29c5 -63 46 -100 111 -100c62 0 112 36 136 100z" />
    <glyph glyph-name="dotaccent" unicode="&#x2d9;" horiz-adv-x="333" 
d="M263 614c25 0 49 -24 49 -50c0 -27 -22 -49 -49 -49c-28 0 -50 22 -50 51c0 27 22 48 50 48z" />
    <glyph glyph-name="ring" unicode="&#x2da;" horiz-adv-x="333" 
d="M273 717c56 0 103 -46 103 -102c0 -55 -45 -100 -101 -100c-57 0 -102 45 -102 103c0 54 45 99 100 99zM273 683c-36 0 -66 -30 -66 -66c0 -38 30 -68 67 -68c39 0 68 28 68 66c0 37 -31 68 -69 68z" />
    <glyph glyph-name="ogonek" unicode="&#x2db;" horiz-adv-x="333" 
d="M235 -75l17 -18c-35 -52 -77 -78 -126 -78c-53 0 -97 44 -97 97c0 44 20 77 70 115h24c-22 -36 -32 -65 -32 -96c0 -30 25 -52 61 -52c31 0 56 9 83 32z" />
    <glyph glyph-name="tilde" unicode="&#x2dc;" horiz-adv-x="333" 
d="M407 633h29c-14 -69 -47 -106 -95 -106c-14 0 -32 5 -59 16c-54 22 -79 29 -97 29c-25 0 -41 -15 -51 -48h-29c20 78 48 108 101 108c22 0 49 -8 87 -25c31 -14 47 -19 63 -19c27 0 40 11 51 45z" />
    <glyph glyph-name="hungarumlaut" unicode="&#x2dd;" horiz-adv-x="333" 
d="M124 501l163 162c6 7 15 10 25 10c21 0 37 -16 37 -36c0 -13 -5 -21 -17 -29l-173 -107h-35zM296 501l163 162c6 7 15 10 25 10c21 0 37 -16 37 -36c0 -13 -5 -21 -17 -29l-172 -107h-36z" />
    <glyph glyph-name="tonos" unicode="&#x384;" horiz-adv-x="333" 
d="M216 482l6 56c10 105 24 134 65 134c19 0 29 -11 29 -32c0 -20 -13 -60 -36 -111l-22 -47h-42z" />
    <glyph glyph-name="dieresistonos" unicode="&#x385;" horiz-adv-x="333" 
d="M240 557l3 39c6 74 16 94 49 94c16 0 24 -8 24 -23c0 -16 -9 -42 -26 -77l-16 -33h-34zM179 569c24 0 45 -21 45 -46c0 -24 -19 -43 -44 -43s-46 21 -46 46c0 24 20 43 45 43zM333 569c24 0 45 -21 45 -46c0 -24 -19 -43 -44 -43s-46 21 -46 46c0 24 20 43 45 43z" />
    <glyph glyph-name="Alphatonos" unicode="&#x386;" horiz-adv-x="611" 
d="M180 450l6 65c13 122 29 157 77 157c22 0 34 -13 34 -37s-15 -71 -43 -130l-25 -55h-49zM371 208h-179l-96 -138c-6 -9 -10 -19 -10 -25c0 -18 15 -27 45 -27h19l-4 -18h-198l5 18h11c35 -1 50 10 97 73l406 571h17l-23 -558c-1 -29 -1 -29 -1 -34c0 -40 15 -52 64 -52
h23l-5 -18h-264l4 18h23c47 0 58 13 61 73zM372 244l10 236l-165 -236h155z" />
    <glyph glyph-name="uni0387" unicode="&#x387;" horiz-adv-x="250" 
d="M138 315c32 0 58 -27 58 -59c0 -29 -26 -54 -58 -54c-30 0 -55 25 -55 56s25 57 55 57z" />
    <glyph glyph-name="Epsilontonos" unicode="&#x388;" horiz-adv-x="679" 
d="M88 450l6 65c12 122 30 157 77 157c22 0 34 -13 34 -37s-16 -72 -43 -130l-25 -55h-49zM346 331l-64 -239c-4 -14 -5 -20 -5 -27c0 -24 13 -28 99 -28c68 0 131 19 178 53c34 24 53 49 76 98h16l-60 -188h-495l5 18c58 2 78 20 95 87l122 458c4 14 6 28 6 40
c0 31 -20 42 -79 41l4 18h481l-43 -158h-17c4 17 5 25 5 36c0 62 -39 86 -141 86h-104l-70 -259h67c78 -2 110 22 133 100h17l-64 -241h-17c7 31 9 41 9 57c0 33 -23 48 -76 48h-78z" />
    <glyph glyph-name="Etatonos" unicode="&#x389;" horiz-adv-x="792" 
d="M79 450l7 65c12 123 29 157 77 157c21 0 33 -13 33 -37s-16 -74 -42 -130l-26 -55h-49zM339 330l-62 -230c-4 -15 -6 -31 -6 -41c0 -16 10 -30 26 -36c9 -3 22 -5 46 -5l-5 -18h-259l5 18c61 1 81 19 98 87l122 458c4 14 6 26 6 39c0 17 -10 31 -26 37c-9 3 -22 5 -46 5
l5 18h272l-5 -18c-73 0 -91 -14 -110 -87l-51 -190h269l52 196c4 14 6 27 6 40c0 30 -19 41 -72 41l5 18h268l-5 -18c-69 0 -87 -15 -106 -87l-122 -457c-4 -15 -6 -27 -6 -40c0 -17 10 -31 26 -37c9 -3 23 -5 47 -5l-5 -18h-266l5 18c66 1 85 17 103 87l60 225h-269z" />
    <glyph glyph-name="Iotatonos" unicode="&#x38a;" horiz-adv-x="402" 
d="M67 450l7 65c12 123 29 157 77 157c21 0 33 -13 33 -37s-16 -74 -42 -130l-26 -55h-49zM331 18l-5 -18h-259l5 18c61 1 81 19 98 87l122 458c4 14 6 26 6 39c0 17 -10 31 -26 37c-9 3 -22 5 -46 5l5 18h272l-5 -18c-73 0 -91 -14 -110 -87l-123 -457
c-4 -15 -6 -31 -6 -41c0 -16 10 -30 26 -36c9 -3 22 -5 46 -5z" />
    <glyph glyph-name="Omicrontonos" unicode="&#x38c;" horiz-adv-x="722" 
d="M85 450l6 65c13 123 29 157 77 157c22 0 34 -13 34 -37s-15 -71 -43 -130l-25 -55h-49zM505 672c133 0 223 -95 223 -237c0 -120 -63 -258 -162 -355c-63 -61 -134 -90 -219 -90c-138 0 -225 91 -225 234c0 113 52 236 139 329c69 75 160 119 244 119zM499 635
c-52 0 -106 -32 -144 -83c-73 -99 -129 -260 -129 -372c0 -94 50 -156 127 -156c67 0 135 53 183 141c54 101 89 223 89 312c0 99 -47 158 -126 158z" />
    <glyph glyph-name="Upsilontonos" unicode="&#x38e;" horiz-adv-x="660" 
d="M71 450l6 65c13 123 29 157 77 157c22 0 34 -13 34 -37s-15 -71 -43 -130l-25 -55h-49zM495 311l-56 -211c-4 -15 -6 -27 -6 -40c0 -20 12 -34 33 -39c8 -2 26 -3 51 -3l-6 -18h-288l5 18c76 -1 95 14 114 87l58 216l-78 250c-17 53 -42 75 -87 73h-21l5 18h283l-4 -18
h-21c-43 0 -64 -12 -64 -39c0 -7 2 -16 7 -34l64 -214l150 214c17 23 22 34 22 45c0 18 -19 28 -53 28h-16l6 18h222l-5 -18c-53 0 -99 -33 -152 -107z" />
    <glyph glyph-name="Omegatonos" unicode="&#x38f;" horiz-adv-x="726" 
d="M84 450l6 65c12 122 30 157 77 157c22 0 34 -13 34 -37s-15 -71 -43 -130l-25 -55h-49zM671 163l23 -6l-68 -157h-227l19 70c61 53 91 90 126 153c48 88 77 193 77 280c0 83 -48 135 -124 135s-146 -54 -183 -141c-33 -79 -56 -188 -56 -265c0 -74 15 -119 54 -162
l-19 -70h-226l16 156l20 7c-2 -21 -3 -29 -3 -39c0 -35 16 -48 59 -48h119c-81 62 -120 140 -120 237c0 98 43 194 121 267c65 62 141 92 232 92c133 0 214 -81 214 -214c0 -96 -44 -190 -128 -277c-39 -40 -77 -68 -142 -105h111c54 3 82 25 105 87z" />
    <glyph glyph-name="iotadieresistonos" unicode="&#x390;" horiz-adv-x="278" 
d="M210 100l12 -14c-54 -65 -95 -96 -128 -96c-27 0 -42 12 -42 32c0 10 2 22 5 36l76 282c5 19 7 31 7 41c0 17 -8 24 -27 24c-9 0 -17 -1 -33 -4l5 19c46 4 97 12 147 24l-101 -379c-1 -5 -2 -10 -2 -13c0 -6 7 -12 15 -12c14 0 42 25 66 60zM201 557l3 39
c6 73 17 94 49 94c15 0 24 -8 24 -23s-10 -44 -26 -77l-16 -33h-34zM130 569c24 0 45 -21 45 -46c0 -24 -19 -43 -44 -43s-46 21 -46 46c0 24 20 43 45 43zM305 569c24 0 45 -21 45 -46c0 -24 -19 -43 -44 -43s-46 21 -46 46c0 24 20 43 45 43z" />
    <glyph glyph-name="Alpha" unicode="&#x391;" horiz-adv-x="611" 
d="M371 208h-179l-96 -138c-6 -9 -10 -19 -10 -25c0 -18 15 -27 45 -27h19l-4 -18h-198l5 18h11c35 -1 50 10 97 73l406 571h17l-23 -558c-1 -29 -1 -29 -1 -34c0 -40 15 -52 64 -52h23l-5 -18h-264l4 18h23c47 0 58 13 61 73zM372 244l10 236l-165 -236h155z" />
    <glyph glyph-name="Beta" unicode="&#x392;" horiz-adv-x="611" 
d="M170 662h227c67 0 113 -11 146 -37c32 -24 53 -68 53 -108c0 -45 -25 -95 -64 -125c-25 -20 -48 -30 -100 -43c76 -27 111 -72 111 -141c0 -67 -36 -130 -95 -166c-53 -34 -103 -42 -251 -42h-192l5 18c66 1 86 17 103 87l123 457c4 15 6 29 6 40c0 17 -10 31 -26 37
c-10 3 -25 5 -51 5zM345 621l-68 -254c19 -1 33 -1 49 -1c104 0 174 64 174 159c0 63 -44 100 -119 100c-14 0 -21 -1 -36 -4zM268 332l-77 -286c28 -6 41 -8 62 -8c111 0 187 73 187 179c0 80 -47 117 -148 117c-4 0 -14 -1 -24 -2z" />
    <glyph glyph-name="Gamma" unicode="&#x393;" horiz-adv-x="569" 
d="M350 626l-141 -526c-4 -17 -6 -28 -6 -39c0 -31 17 -42 72 -43l-5 -18h-259l5 18c61 1 81 19 98 87l122 458c4 13 6 27 6 37c0 33 -16 43 -72 44l5 18h461l-46 -174h-17c6 35 8 50 8 69c0 27 -10 49 -29 60c-11 7 -24 9 -55 9h-147z" />
    <glyph glyph-name="uni0394" unicode="&#x394;" horiz-adv-x="587" 
d="M460 0h-512l505 662h19zM364 41l12 449l-290 -385c-12 -17 -22 -36 -22 -44c0 -13 15 -20 41 -20h259z" />
    <glyph glyph-name="Epsilon" unicode="&#x395;" horiz-adv-x="611" 
d="M265 331l-64 -239c-4 -14 -5 -20 -5 -27c0 -24 13 -28 99 -28c68 0 131 19 178 53c34 24 54 49 76 98h16l-60 -188h-495l5 18c59 2 78 20 95 87l122 458c4 14 6 28 6 40c0 31 -20 42 -79 41l4 18h481l-43 -158h-17c4 17 5 24 5 36c0 62 -39 86 -141 86h-104l-70 -259h67
c78 -2 111 22 133 100h17l-64 -241h-17c7 31 9 41 9 57c0 33 -23 48 -76 48h-78z" />
    <glyph glyph-name="Zeta" unicode="&#x396;" horiz-adv-x="556" 
d="M149 39h108c175 -1 238 32 271 139h21l-55 -178h-503l475 624h-130c-157 2 -202 -21 -232 -118h-25l52 156h493z" />
    <glyph glyph-name="Eta" unicode="&#x397;" horiz-adv-x="722" 
d="M257 330l-62 -230c-4 -15 -6 -31 -6 -41c0 -16 10 -30 26 -36c9 -3 22 -5 46 -5l-5 -18h-259l5 18c61 1 81 19 98 87l122 458c4 14 6 26 6 39c0 17 -10 31 -26 37c-9 3 -22 5 -46 5l5 18h272l-5 -18c-73 0 -91 -14 -110 -87l-51 -190h269l52 196c4 14 6 27 6 40
c0 30 -19 41 -72 41l5 18h268l-5 -18c-69 0 -87 -15 -106 -87l-122 -457c-4 -15 -6 -27 -6 -40c0 -17 10 -31 26 -37c9 -3 23 -5 47 -5l-5 -18h-266l5 18c66 1 85 17 103 87l60 225h-269z" />
    <glyph glyph-name="Theta" unicode="&#x398;" horiz-adv-x="722" 
d="M546 457l-56 -217h-17c3 13 4 27 4 35c0 29 -18 39 -72 39h-32c-71 -1 -88 -13 -109 -74h-17l56 217h17c-2 -12 -3 -24 -3 -32c0 -29 20 -41 71 -41h34c66 0 86 13 107 73h17zM486 677c70 0 136 -21 182 -58c47 -38 72 -98 72 -173c0 -117 -51 -247 -132 -334
c-77 -83 -186 -129 -306 -129c-164 0 -257 85 -257 234c0 117 51 246 129 330c77 82 192 130 312 130zM480 644c-84 0 -158 -37 -213 -106c-66 -84 -118 -244 -118 -365c0 -62 20 -108 58 -131c27 -17 64 -26 100 -26c98 0 180 48 233 136c58 95 96 223 96 326
c0 67 -21 116 -61 141c-24 15 -62 25 -95 25z" />
    <glyph glyph-name="Iota" unicode="&#x399;" horiz-adv-x="333" 
d="M250 18l-5 -18h-259l5 18c61 1 81 19 98 87l122 458c4 14 6 26 6 39c0 17 -10 31 -26 37c-9 3 -22 5 -46 5l5 18h272l-5 -18c-73 0 -91 -14 -110 -87l-123 -457c-4 -15 -6 -31 -6 -41c0 -16 10 -30 26 -36c9 -3 22 -5 46 -5z" />
    <glyph glyph-name="Kappa" unicode="&#x39a;" horiz-adv-x="667" 
d="M268 349l-65 -249c-4 -15 -6 -27 -6 -40c0 -17 10 -31 26 -37c10 -4 26 -5 53 -5l-6 -18h-268l5 18c63 1 83 18 100 87l123 458c4 14 6 29 6 39c0 17 -10 31 -26 37c-10 4 -25 5 -50 5l5 18h267l-5 -18c-65 -1 -84 -17 -102 -87l-51 -191l279 234c20 16 21 18 21 26
c0 13 -6 15 -50 18l5 18h201l-6 -18c-40 -1 -65 -11 -108 -44l-264 -216l141 -254c50 -90 80 -114 143 -112l-6 -18h-269l6 18c42 3 61 13 61 34c0 12 -6 29 -17 48z" />
    <glyph glyph-name="Lambda" unicode="&#x39b;" horiz-adv-x="604" 
d="M378 480l-286 -410c-6 -9 -10 -19 -10 -25c0 -18 15 -27 45 -27h19l-4 -18h-198l5 18h11c35 -1 50 10 97 73l406 571h17l-23 -558c-1 -29 -1 -29 -1 -34c0 -40 15 -52 64 -52h23l-5 -18h-264l4 18h23c47 0 58 13 61 73z" />
    <glyph glyph-name="Mu" unicode="&#x39c;" horiz-adv-x="833" 
d="M391 152l346 510h165l-5 -18c-69 0 -87 -15 -106 -87l-122 -457c-4 -15 -6 -28 -6 -41c0 -16 10 -30 26 -36c9 -3 23 -5 48 -5l-5 -18h-267l5 18c64 1 83 18 102 87l122 434l-359 -539h-18l-61 562l-124 -462c-4 -15 -6 -30 -6 -41c0 -16 10 -30 26 -36
c10 -4 25 -5 52 -5l-5 -18h-207l5 18c63 1 82 18 99 87l133 496c1 4 2 8 2 10c0 7 -10 17 -25 24c-11 5 -19 6 -52 9l5 18h177z" />
    <glyph glyph-name="Nu" unicode="&#x39d;" horiz-adv-x="667" 
d="M259 540l-118 -440c-4 -15 -6 -27 -6 -40c0 -17 10 -31 26 -37c10 -4 25 -5 52 -5l-6 -18h-209l5 18c64 1 83 17 101 87l132 492c-22 35 -45 48 -87 48h-20l5 17h176l187 -483l103 383c4 15 6 30 6 40c0 17 -10 31 -26 37c-9 3 -24 5 -49 5l5 18h207l-5 -18
c-64 -2 -82 -18 -100 -87l-151 -565h-15z" />
    <glyph glyph-name="Xi" unicode="&#x39e;" horiz-adv-x="639" 
d="M563 188l-50 -188h-499l50 188h16c-1 -16 -2 -24 -2 -33c0 -63 34 -91 111 -91h91h92c91 1 138 35 175 124h16zM672 662l-46 -172h-17c3 17 4 25 4 35c0 52 -25 67 -112 67h-162c-98 2 -137 -23 -163 -102h-17l46 172h467zM541 467l-64 -241h-17c6 22 7 31 7 43
c0 33 -22 46 -78 46h-81c-75 -1 -101 -20 -119 -89h-17l64 241h18c-4 -18 -5 -27 -5 -36c0 -13 4 -23 13 -31c14 -13 29 -16 76 -16h57c78 -2 110 18 129 83h17z" />
    <glyph glyph-name="Omicron" unicode="&#x39f;" horiz-adv-x="722" 
d="M471 672c134 0 223 -95 223 -238c0 -119 -63 -257 -162 -354c-62 -61 -133 -90 -219 -90c-137 0 -224 91 -224 235c0 112 52 235 139 328c69 75 159 119 243 119zM465 635c-51 0 -106 -32 -143 -83c-74 -100 -129 -260 -129 -373c0 -93 50 -155 126 -155
c68 0 136 53 183 141c55 102 89 223 89 312c0 99 -47 158 -126 158z" />
    <glyph glyph-name="Pi" unicode="&#x3a0;" horiz-adv-x="722" 
d="M799 662l-4 -18c-73 0 -92 -14 -111 -87l-122 -457c-4 -15 -6 -27 -6 -40c0 -17 10 -31 26 -37c9 -3 22 -5 45 -5l-5 -18h-259l5 18c62 1 81 18 98 87l117 438c5 16 7 30 7 40c0 29 -21 42 -72 42h-95c-72 1 -92 -15 -110 -87l-118 -438c-4 -15 -6 -31 -6 -41
c0 -16 10 -30 26 -36c9 -3 22 -5 46 -5l-5 -18h-259l5 18c61 1 81 19 98 87l122 457c4 15 6 27 6 40c0 17 -10 31 -26 37c-9 3 -22 5 -46 5l5 18h638z" />
    <glyph glyph-name="Rho" unicode="&#x3a1;" horiz-adv-x="611" 
d="M293 324l-61 -224c-4 -15 -6 -31 -6 -40c0 -17 10 -31 26 -37c10 -4 27 -5 55 -5l-5 -18h-271l5 18c65 1 84 17 101 87l123 458c4 14 6 29 6 40c0 16 -10 30 -26 36c-10 4 -24 5 -50 5l5 18h223c128 0 207 -58 207 -152c0 -118 -100 -199 -246 -199c-31 0 -47 3 -86 13z
M371 619l-70 -264c25 -7 38 -9 58 -9c42 0 82 14 110 39c33 30 56 83 56 129c0 68 -40 110 -106 110c-13 0 -25 -1 -48 -5z" />
    <glyph glyph-name="Sigma" unicode="&#x3a3;" horiz-adv-x="594" 
d="M585 663l-29 -155h-32c1 16 2 31 2 43c0 58 -30 75 -129 75h-165l97 -265l-205 -207c-27 -27 -46 -52 -46 -59c0 -10 10 -14 39 -14h187c117 0 151 17 200 99l28 -9l-100 -171h-518l318 315l-126 348h479z" />
    <glyph glyph-name="Tau" unicode="&#x3a4;" horiz-adv-x="556" 
d="M435 622l-140 -522c-4 -15 -6 -30 -6 -40c0 -17 10 -31 26 -37c10 -3 26 -5 55 -5h10l-5 -18h-290l4 18c74 0 93 14 112 87l138 517h-63c-98 3 -159 -43 -178 -134h-19l47 174h543l-46 -174h-17c5 26 7 44 7 63c0 48 -26 71 -81 71h-97z" />
    <glyph glyph-name="Upsilon" unicode="&#x3a5;" horiz-adv-x="556" 
d="M372 311l-56 -211c-4 -15 -6 -28 -6 -40c0 -20 12 -34 33 -39c9 -2 26 -3 51 -3l-5 -18h-289l6 18c75 -1 94 14 113 87l58 216l-78 250c-16 53 -42 75 -87 73h-21l6 18h282l-4 -18h-21c-43 0 -64 -13 -64 -39c0 -7 1 -12 8 -34l63 -214l151 214c16 23 21 34 21 45
c0 18 -19 28 -52 28h-17l6 18h223l-6 -18c-53 0 -98 -33 -151 -107z" />
    <glyph glyph-name="Phi" unicode="&#x3a6;" horiz-adv-x="761" 
d="M636 665h-12c-60 0 -86 -21 -98 -79c88 -2 136 -12 177 -34c46 -26 72 -73 72 -132c0 -97 -52 -199 -131 -258c-64 -48 -121 -65 -247 -74l-3 -13c-6 -23 -6 -24 -6 -35c0 -32 18 -43 65 -43h11l-7 -27h-278l7 27h11c60 1 83 19 99 78l3 13c-78 1 -124 10 -166 34
c-52 29 -80 80 -80 145c0 104 64 212 157 266c59 35 117 49 217 53c5 17 6 25 6 36c0 32 -17 43 -63 43h-12l7 27h278zM307 119l113 437c-74 -7 -125 -26 -169 -64c-56 -50 -96 -151 -96 -243c0 -57 18 -89 63 -111c26 -12 45 -17 89 -19zM519 558l-113 -439
c99 11 150 35 197 96c40 52 69 138 69 206c0 84 -47 126 -153 137z" />
    <glyph glyph-name="Chi" unicode="&#x3a7;" horiz-adv-x="611" 
d="M306 266l-157 -192c-14 -17 -18 -25 -18 -33c0 -15 16 -23 47 -23h21l-6 -18h-209l6 18c36 0 99 41 141 94l164 198l-69 249c-22 67 -40 84 -90 85h-18l6 18h268l-6 -18h-15c-35 0 -55 -13 -55 -37c0 -8 3 -32 6 -42l43 -165l146 178c21 25 25 32 25 44
c0 16 -9 22 -33 22h-11l6 18h201l-5 -18c-62 -3 -94 -22 -157 -98l-159 -191l63 -232c23 -84 39 -104 86 -105h13l-6 -18h-255l6 18h17c36 0 57 15 57 42c0 6 -2 17 -4 27z" />
    <glyph glyph-name="Psi" unicode="&#x3a8;" horiz-adv-x="703" 
d="M820 646l-8 -21c-13 5 -19 6 -27 6c-23 0 -38 -22 -52 -74l-22 -84c-38 -138 -136 -211 -305 -228l-38 -145c-4 -15 -6 -27 -6 -40c0 -17 10 -31 26 -37c9 -3 22 -5 45 -5l-5 -18h-255l5 18c62 1 81 19 98 87l38 140c-34 5 -54 10 -76 20c-66 29 -110 92 -110 156
c0 21 2 41 7 64l17 78c6 33 7 38 7 45c0 14 -7 21 -21 21c-8 0 -14 -1 -27 -7l-7 21c26 17 61 29 85 29c37 0 63 -31 63 -74c0 -13 -2 -33 -6 -51l-19 -84c-5 -23 -8 -51 -8 -76c0 -67 28 -98 102 -114l78 290c4 14 6 30 6 39c0 17 -10 31 -26 37c-9 3 -23 5 -46 5l4 18h268
l-4 -18c-74 0 -92 -14 -111 -87l-76 -284c100 21 154 74 190 183l33 107c23 75 54 109 101 109c23 0 39 -5 82 -26z" />
    <glyph glyph-name="uni03A9" unicode="&#x3a9;" horiz-adv-x="723" 
d="M708 163l-75 -163h-270l20 78c66 27 108 60 149 118c57 83 95 196 95 288c0 103 -53 160 -149 160c-88 0 -167 -53 -226 -152c-43 -72 -69 -166 -69 -250c0 -43 11 -84 32 -115c14 -21 28 -33 63 -49l-21 -78h-270l9 163h30c2 -67 18 -82 88 -82h50c8 0 21 -1 39 -3
c-87 44 -124 103 -124 196c0 92 36 187 101 263c74 88 188 140 306 140c70 0 137 -22 180 -58c42 -35 65 -93 65 -165c0 -89 -35 -179 -100 -255c-38 -45 -54 -58 -115 -89l-45 -23c-6 -3 -12 -6 -17 -9c22 2 30 3 49 3h52c64 3 85 17 123 82h30z" />
    <glyph glyph-name="Iotadieresis" unicode="&#x3aa;" horiz-adv-x="333" 
d="M250 18l-5 -18h-259l5 18c61 1 81 19 98 87l122 458c4 14 6 26 6 39c0 17 -10 31 -26 37c-9 3 -22 5 -46 5l5 18h272l-5 -18c-73 0 -91 -14 -110 -87l-123 -457c-4 -15 -6 -31 -6 -41c0 -16 10 -30 26 -36c9 -3 22 -5 46 -5zM215 830c31 0 57 -26 57 -57s-25 -55 -56 -55
c-32 0 -58 26 -58 58c0 30 25 54 57 54zM393 830c31 0 57 -26 57 -57s-25 -55 -56 -55c-32 0 -58 26 -58 58c0 30 25 54 57 54z" />
    <glyph glyph-name="Upsilondieresis" unicode="&#x3ab;" horiz-adv-x="556" 
d="M372 311l-56 -211c-4 -15 -6 -28 -6 -40c0 -20 12 -34 33 -39c9 -2 26 -3 51 -3l-5 -18h-289l6 18c75 -1 94 14 113 87l58 216l-78 250c-16 53 -42 75 -87 73h-21l6 18h282l-4 -18h-21c-43 0 -64 -13 -64 -39c0 -7 1 -12 8 -34l63 -214l151 214c16 23 21 34 21 45
c0 18 -19 28 -52 28h-17l6 18h223l-6 -18c-53 0 -98 -33 -151 -107zM342 830c31 0 57 -26 57 -57s-25 -55 -56 -55c-32 0 -58 26 -58 58c0 30 25 54 57 54zM520 830c31 0 57 -26 57 -57s-25 -55 -56 -55c-32 0 -58 26 -58 58c0 30 25 54 57 54z" />
    <glyph glyph-name="alphatonos" unicode="&#x3ac;" horiz-adv-x="525" 
d="M495 134l13 -9c-49 -95 -86 -135 -125 -135c-24 0 -39 24 -39 62c0 14 1 26 4 53c-22 -31 -33 -44 -50 -61c-35 -34 -82 -54 -128 -54c-78 0 -131 67 -131 167c0 74 30 145 84 204c51 54 104 83 155 83c57 0 88 -31 96 -97l31 87h86l-117 -292c-1 -10 -1 -17 -1 -23
c0 -46 11 -69 32 -69c28 0 56 26 90 84zM305 159l51 142c-2 79 -24 115 -69 115c-49 0 -93 -43 -127 -125c-25 -61 -40 -130 -40 -186c0 -59 21 -91 60 -91c48 0 90 49 125 145zM312 482l6 56c11 106 24 134 65 134c19 0 29 -11 29 -32c0 -20 -14 -63 -36 -111l-22 -47h-42z
" />
    <glyph glyph-name="epsilontonos" unicode="&#x3ad;" horiz-adv-x="394" 
d="M339 149l19 -10c-45 -102 -107 -149 -198 -149c-84 0 -145 50 -145 117c0 55 46 107 119 135c-35 26 -47 48 -47 81c0 69 79 121 183 121c69 0 120 -34 120 -80c0 -28 -19 -48 -45 -48c-16 0 -29 8 -36 22c-5 9 -5 9 -6 35c-1 29 -19 46 -50 46c-54 0 -97 -61 -97 -137
c0 -8 1 -16 5 -31c39 14 58 18 86 18c37 0 58 -12 58 -32c0 -21 -19 -33 -52 -33c-30 0 -52 6 -98 25c-35 -26 -53 -62 -53 -108c0 -58 36 -97 89 -97c60 0 108 41 148 125zM247 482l5 56c11 105 25 134 66 134c19 0 29 -11 29 -32s-13 -59 -37 -111l-21 -47h-42z" />
    <glyph glyph-name="etatonos" unicode="&#x3ae;" horiz-adv-x="496" 
d="M322 -172h-80l126 455c14 49 15 53 15 71s-9 29 -24 29c-17 0 -33 -10 -67 -43c-62 -58 -111 -134 -128 -199l-38 -141h-72l86 325c11 40 11 40 11 46c0 12 -7 21 -17 21c-23 0 -61 -42 -87 -95l-18 11c39 83 99 136 155 136c27 0 44 -18 44 -47c0 -10 -2 -24 -5 -37
l-28 -102c89 130 152 186 209 186c35 0 59 -24 59 -59c0 -19 -4 -42 -10 -66zM297 482l6 56c11 106 24 134 65 134c19 0 29 -11 29 -32c0 -20 -14 -63 -36 -111l-22 -47h-42z" />
    <glyph glyph-name="iotatonos" unicode="&#x3af;" horiz-adv-x="278" 
d="M211 100l12 -14c-54 -65 -95 -96 -128 -96c-27 0 -42 12 -42 32c0 10 2 22 5 36l76 282c5 19 7 31 7 41c0 17 -8 24 -27 24c-9 0 -17 -1 -33 -4l5 19c46 4 97 12 147 24l-101 -379c-1 -5 -2 -10 -2 -13c0 -6 7 -12 15 -12c14 0 42 25 66 60zM188 482l6 56
c11 106 24 134 65 134c19 0 29 -11 29 -31s-15 -65 -36 -112l-22 -47h-42z" />
    <glyph glyph-name="upsilondieresistonos" unicode="&#x3b0;" horiz-adv-x="459" 
d="M49 297l-15 8c44 90 95 139 143 139c27 0 47 -24 47 -56c0 -11 -4 -37 -7 -49l-40 -148c-11 -42 -18 -82 -18 -102c0 -44 23 -74 58 -74c42 0 88 35 123 94c30 51 49 110 49 150c0 29 -8 48 -32 83c-19 28 -24 39 -24 56c0 26 20 46 44 46c34 0 57 -35 57 -84
c0 -70 -24 -169 -59 -237c-42 -83 -108 -133 -177 -133c-67 0 -116 46 -116 109c0 22 4 49 12 78l43 162c5 19 7 27 7 34c0 11 -6 18 -14 18c-20 0 -58 -45 -81 -94zM294 557l3 39c5 74 16 94 48 94c16 0 24 -8 24 -23c0 -16 -10 -44 -26 -77l-16 -33h-33zM223 569
c24 0 45 -21 45 -46c0 -24 -19 -43 -44 -43s-46 20 -46 46c0 24 20 43 45 43zM397 569c24 0 45 -21 45 -46c0 -24 -19 -43 -44 -43s-46 21 -46 46c0 24 20 43 45 43z" />
    <glyph glyph-name="alpha" unicode="&#x3b1;" horiz-adv-x="525" 
d="M495 134l13 -9c-48 -94 -86 -135 -125 -135c-24 0 -39 24 -39 62c0 13 1 26 4 53c-58 -82 -108 -115 -178 -115c-78 0 -131 67 -131 166c0 74 30 146 84 204c51 54 104 83 155 83c57 0 88 -31 96 -96l31 85h86l-117 -290c-1 -10 -1 -17 -1 -23c0 -46 11 -69 32 -69
c28 0 55 25 90 84zM305 159l51 142c-2 78 -24 114 -69 114c-49 0 -93 -43 -127 -124c-25 -62 -40 -131 -40 -186c0 -59 21 -91 60 -91c48 0 90 49 125 145z" />
    <glyph glyph-name="beta" unicode="&#x3b2;" horiz-adv-x="498" 
d="M-22 -172l161 601c19 71 39 118 64 150c40 51 99 80 164 80c75 0 127 -44 127 -108c0 -57 -43 -113 -116 -151c48 -34 73 -88 73 -156c0 -129 -118 -254 -240 -254c-40 0 -69 16 -96 53l-58 -215h-79zM218 429l-95 -355c27 -41 52 -59 82 -59c43 0 87 33 115 87
c28 52 49 135 49 190c0 39 -5 63 -20 90c-22 -8 -35 -11 -51 -11c-28 0 -47 12 -47 31c0 18 19 31 46 31c19 0 34 -4 61 -18c40 42 62 94 62 146c0 45 -24 74 -61 74c-41 0 -77 -28 -100 -79c-10 -22 -27 -75 -41 -127z" />
    <glyph glyph-name="gamma" unicode="&#x3b3;" horiz-adv-x="394" 
d="M190 64l79 87c57 57 64 65 82 98c10 18 14 33 14 51c0 14 -3 26 -11 44c-13 32 -15 38 -15 52c0 27 21 48 48 48c30 0 51 -26 51 -64c0 -40 -19 -92 -51 -138c-28 -40 -39 -51 -128 -139c-31 -31 -47 -47 -74 -79c-22 -93 -31 -123 -45 -151c-17 -34 -37 -52 -58 -52
c-20 0 -35 16 -35 39c0 19 11 54 26 85c12 25 19 35 58 89c7 44 11 102 11 163c0 70 -5 118 -16 151c-7 24 -23 43 -34 43c-17 0 -48 -36 -80 -94l-13 11c39 85 88 136 129 136c52 0 86 -71 86 -183c0 -60 -7 -119 -24 -197z" />
    <glyph glyph-name="delta" unicode="&#x3b4;" horiz-adv-x="465" 
d="M468 617l-18 -72c-63 48 -165 87 -227 87c-24 0 -37 -8 -37 -22c0 -12 1 -13 46 -43l147 -99c57 -38 83 -86 83 -154c0 -172 -135 -321 -291 -321c-96 0 -158 62 -158 159c0 77 34 161 91 224c40 43 80 67 151 89l-65 51c-31 25 -47 51 -47 78c0 53 40 83 108 83
c70 0 149 -22 217 -60zM287 447c-68 -27 -101 -53 -134 -107c-36 -58 -56 -131 -56 -201c0 -78 30 -118 88 -118c49 0 93 28 130 83c39 59 63 132 63 194s-26 104 -91 149z" />
    <glyph glyph-name="epsilon" unicode="&#x3b5;" horiz-adv-x="394" 
d="M339 149l19 -10c-45 -102 -107 -149 -198 -149c-84 0 -145 50 -145 117c0 55 46 107 119 135c-35 26 -47 48 -47 81c0 69 79 121 183 121c69 0 120 -34 120 -80c0 -28 -19 -48 -45 -48c-16 0 -29 8 -36 22c-5 9 -5 9 -6 35c-1 29 -19 46 -50 46c-54 0 -97 -61 -97 -137
c0 -8 1 -16 5 -31c39 14 58 18 86 18c37 0 58 -12 58 -32c0 -21 -19 -33 -52 -33c-30 0 -52 6 -98 25c-35 -26 -53 -62 -53 -108c0 -58 36 -97 89 -97c60 0 108 41 148 125z" />
    <glyph glyph-name="zeta" unicode="&#x3b6;" horiz-adv-x="405" 
d="M282 723l7 -18c-42 -20 -65 -42 -65 -64c0 -24 19 -48 52 -64c86 56 116 68 169 68c29 0 47 -13 47 -33c0 -39 -59 -66 -144 -66c-22 0 -34 1 -59 6c-53 -57 -81 -95 -111 -156c-41 -85 -64 -173 -64 -247c0 -54 25 -82 73 -82c10 0 26 1 41 3c14 2 29 3 38 3
c40 0 65 -26 65 -69c0 -44 -26 -83 -77 -115c-39 -26 -82 -41 -116 -41c-28 0 -47 15 -47 37c0 23 19 38 48 38c12 0 18 -1 39 -8c12 -4 19 -5 29 -5c40 0 77 31 77 66c0 18 -15 27 -42 27c-5 0 -19 -1 -36 -3c-16 -2 -33 -3 -43 -3c-77 0 -126 57 -126 145
c0 92 33 193 93 281c37 56 64 84 128 137c-54 21 -86 48 -86 74c0 25 48 64 110 89z" />
    <glyph glyph-name="eta" unicode="&#x3b7;" horiz-adv-x="496" 
d="M322 -172h-80l126 455c14 49 15 53 15 71s-9 29 -24 29c-17 0 -33 -10 -67 -43c-62 -58 -111 -134 -128 -199l-38 -141h-72l86 325c11 40 11 40 11 46c0 12 -7 21 -17 21c-23 0 -61 -42 -87 -95l-18 11c39 83 99 136 155 136c27 0 44 -18 44 -47c0 -10 -2 -24 -5 -37
l-28 -102c89 130 152 186 209 186c35 0 59 -24 59 -59c0 -19 -4 -42 -10 -66z" />
    <glyph glyph-name="theta" unicode="&#x3b8;" horiz-adv-x="491" 
d="M354 659c75 0 124 -62 124 -157c0 -90 -35 -240 -80 -344c-45 -105 -121 -168 -202 -168c-79 0 -124 61 -124 170c0 68 29 198 66 300c46 123 128 199 216 199zM187 365h195c23 101 31 152 31 193c0 50 -25 82 -65 82c-30 0 -60 -21 -82 -58c-28 -47 -45 -94 -79 -217z
M377 339h-196c-30 -116 -45 -199 -45 -248c0 -50 26 -82 66 -82c41 0 76 34 105 102c20 45 41 113 70 228z" />
    <glyph glyph-name="iota" unicode="&#x3b9;" horiz-adv-x="278" 
d="M211 100l12 -14c-54 -65 -95 -96 -128 -96c-27 0 -42 12 -42 32c0 10 2 22 5 36l76 282c5 19 7 31 7 41c0 17 -8 24 -27 24c-9 0 -17 -1 -33 -4l5 19c46 4 97 12 147 24l-101 -379c-1 -5 -2 -10 -2 -13c0 -6 7 -12 15 -12c14 0 42 25 66 60z" />
    <glyph glyph-name="kappa" unicode="&#x3ba;" horiz-adv-x="480" 
d="M228 260l78 -161c19 -41 36 -60 52 -60c19 0 48 34 71 83l15 -7c-25 -51 -37 -70 -57 -93c-18 -21 -43 -34 -63 -34c-24 0 -43 16 -60 51l-94 198l-63 -237h-73l91 340c5 21 7 30 7 41c0 17 -8 24 -27 24c-9 0 -17 -1 -33 -4l5 19c45 4 92 12 149 25l-55 -203l24 22
c18 15 36 31 53 47c128 117 151 133 192 133c26 0 43 -15 43 -39c0 -20 -11 -38 -29 -46c-14 -6 -23 -7 -60 -7c-47 -1 -59 -5 -95 -34c-29 -25 -47 -39 -71 -58z" />
    <glyph glyph-name="lambda" unicode="&#x3bb;" horiz-adv-x="433" 
d="M262 300l-223 -300h-84l319 420c4 28 6 50 6 73c0 44 -6 53 -50 77c-17 9 -26 23 -26 42c0 30 20 48 53 48c40 0 63 -28 63 -76c0 -10 -1 -29 -4 -52l-36 -345c-4 -38 -5 -55 -5 -75c0 -36 12 -55 35 -55c25 0 42 15 72 68l17 -10c-38 -80 -82 -125 -121 -125
c-28 0 -43 23 -43 67c0 12 4 48 11 107z" />
    <glyph glyph-name="uni03BC" unicode="&#x3bc;" horiz-adv-x="502" 
d="M147 434h71l-86 -324c-7 -24 -7 -25 -7 -35c0 -20 11 -30 32 -30c28 0 66 34 114 100c55 76 72 112 96 202l22 87h71l-87 -330c-6 -21 -11 -46 -11 -53c0 -9 4 -15 11 -15c13 0 35 17 63 48l10 -10c-38 -52 -88 -87 -124 -87c-21 0 -37 16 -37 38c0 11 2 26 7 43l35 131
c-53 -83 -81 -119 -118 -155c-40 -38 -74 -57 -103 -57c-17 0 -28 6 -40 21c-2 -23 -3 -34 -3 -47c0 -7 1 -22 2 -42c1 -11 1 -21 1 -28c0 -46 -15 -69 -45 -69c-25 0 -43 18 -43 43c0 21 3 32 39 123c19 48 48 137 61 187z" />
    <glyph glyph-name="nu" unicode="&#x3bd;" horiz-adv-x="444" 
d="M251 189v-104c75 96 122 192 122 247c0 15 -3 20 -23 32c-15 8 -23 23 -23 38c0 24 19 42 42 42c30 0 54 -29 54 -66c0 -42 -25 -106 -70 -186c-36 -61 -44 -73 -110 -156c-28 -35 -28 -35 -41 -52h-21c3 34 4 59 4 117c0 62 -11 184 -22 241c-7 35 -15 49 -31 49
c-21 0 -46 -40 -57 -91l-16 6c13 83 55 138 103 138c38 0 63 -36 77 -107c7 -39 11 -89 12 -148z" />
    <glyph glyph-name="xi" unicode="&#x3be;" horiz-adv-x="428" 
d="M288 725l8 -15c-6 -4 -10 -6 -13 -7c-34 -19 -46 -31 -46 -48c0 -18 20 -42 51 -61c62 31 113 46 162 46c37 0 57 -11 57 -32c0 -30 -43 -50 -110 -50c-32 0 -51 3 -101 16c-46 -41 -70 -87 -70 -138c0 -24 5 -42 18 -59c59 25 95 34 135 34c31 0 53 -13 53 -32
c0 -28 -34 -47 -84 -47c-35 0 -67 7 -105 22c-80 -56 -128 -138 -128 -219c0 -45 24 -69 67 -69c13 0 42 2 61 4c18 2 36 3 45 3c40 0 65 -26 65 -69c0 -44 -26 -83 -76 -115c-40 -26 -83 -41 -116 -41c-28 0 -47 15 -47 37c0 23 19 38 48 38c12 0 18 -1 39 -8
c12 -4 19 -5 28 -5c41 0 77 32 77 67c0 17 -14 27 -40 27c-6 0 -22 -1 -44 -4c-22 -2 -38 -3 -51 -3c-42 0 -64 5 -83 20c-30 24 -47 62 -47 108c0 94 69 186 181 241c-42 25 -59 49 -59 83c0 47 41 98 107 134c-55 21 -85 44 -85 66s43 54 103 76z" />
    <glyph glyph-name="omicron" unicode="&#x3bf;" 
d="M310 444c80 0 138 -69 138 -166c0 -82 -38 -164 -102 -221c-51 -45 -104 -68 -153 -68c-81 0 -137 67 -137 166c0 146 126 289 254 289zM301 419c-39 0 -76 -26 -106 -74c-40 -62 -66 -155 -66 -230c0 -63 28 -101 73 -101c42 0 79 29 110 86c35 65 59 154 59 219
c0 58 -29 100 -70 100z" />
    <glyph glyph-name="pi" unicode="&#x3c0;" horiz-adv-x="501" 
d="M573 434l-18 -70h-117c-19 -30 -23 -41 -44 -129l-29 -112c-10 -40 -10 -40 -10 -45c0 -14 14 -28 29 -28c8 0 8 0 49 14l-1 -20l-117 -46c-12 -4 -14 -5 -16 -5c-12 0 -24 26 -24 52c0 13 1 19 10 53l34 136c16 58 39 90 92 130h-201l-27 -83c-2 -6 -8 -25 -16 -53
c-20 -69 -44 -135 -61 -169c-24 -46 -50 -66 -85 -66c-23 0 -35 11 -35 31c0 16 8 34 22 49c9 10 9 10 43 35c46 40 51 50 126 256c-68 1 -100 -8 -169 -45l-11 20l100 70c32 22 42 25 88 25h388z" />
    <glyph glyph-name="rho" unicode="&#x3c1;" horiz-adv-x="480" 
d="M-22 -172l107 398c23 88 42 127 78 160c40 37 92 58 142 58c83 0 139 -67 139 -166c0 -146 -119 -288 -241 -288c-37 0 -58 11 -90 47l-56 -209h-79zM178 278l-57 -213c22 -36 42 -50 71 -50c48 0 90 33 120 95c29 60 51 154 51 219c0 57 -25 90 -66 90
c-51 0 -96 -53 -119 -141z" />
    <glyph glyph-name="uni03C2" unicode="&#x3c2;" horiz-adv-x="406" 
d="M345 444c45 0 75 -21 75 -52c0 -26 -21 -46 -47 -46c-14 0 -23 4 -48 22c-24 17 -44 25 -62 25c-39 0 -76 -30 -102 -84c-28 -59 -46 -127 -46 -177c0 -47 19 -65 68 -65c14 0 14 0 47 4c9 1 18 2 26 2c42 0 69 -28 69 -71c0 -72 -92 -158 -169 -158c-31 0 -52 15 -52 39
c0 23 19 39 46 39c11 0 13 -1 35 -8c12 -5 22 -7 32 -7c32 0 67 33 67 65c0 20 -14 30 -44 30c-10 0 -10 0 -43 -4c-7 -1 -17 -1 -26 -1c-86 0 -127 41 -127 126c0 165 146 321 301 321z" />
    <glyph glyph-name="sigma" unicode="&#x3c3;" horiz-adv-x="493" 
d="M572 434l-19 -75l-24 1l-64 3l-57 3l-31 2c49 -18 74 -57 74 -116c0 -63 -29 -128 -81 -181c-49 -50 -116 -78 -186 -78c-98 0 -161 57 -161 145c0 71 34 151 87 208c62 66 116 88 221 88h241zM345 364h-30c-74 0 -122 -24 -162 -79c-30 -42 -48 -98 -48 -151
c0 -71 35 -114 93 -114c93 0 171 115 171 252c0 39 -5 58 -24 92z" />
    <glyph glyph-name="tau" unicode="&#x3c4;" horiz-adv-x="358" 
d="M444 434l-18 -70h-178c-18 -29 -24 -44 -37 -93l-38 -147c-11 -44 -11 -44 -11 -53c0 -15 6 -22 20 -22s39 7 65 17l-5 -22l-123 -47c-6 -3 -10 -4 -13 -4c-12 -1 -26 25 -26 49c0 8 1 15 7 37l39 152c18 62 33 83 94 133h-41c-81 -1 -109 -10 -184 -57l-14 22l100 78
c28 22 46 27 88 27h275z" />
    <glyph glyph-name="upsilon" unicode="&#x3c5;" horiz-adv-x="459" 
d="M49 297l-15 8c44 90 95 139 143 139c27 0 47 -24 47 -56c0 -11 -4 -37 -7 -49l-40 -148c-11 -42 -18 -82 -18 -102c0 -44 23 -74 58 -74c42 0 88 35 123 94c30 51 49 110 49 150c0 29 -8 48 -32 83c-19 28 -24 39 -24 56c0 26 20 46 44 46c34 0 57 -35 57 -84
c0 -70 -24 -169 -59 -237c-42 -83 -108 -133 -177 -133c-67 0 -116 46 -116 109c0 22 4 49 12 78l43 162c5 19 7 27 7 34c0 11 -6 18 -14 18c-20 0 -58 -45 -81 -94z" />
    <glyph glyph-name="phi" unicode="&#x3c6;" horiz-adv-x="553" 
d="M281 446l-4 -17c-37 -11 -56 -23 -80 -49c-45 -49 -82 -159 -82 -246c0 -64 22 -97 77 -116l68 272c15 61 28 90 47 111c25 29 60 45 95 45c72 0 127 -64 127 -148c0 -78 -40 -166 -102 -226c-52 -49 -102 -72 -181 -81l-49 -192h-60l48 192c-98 12 -150 69 -150 165
c0 86 38 172 99 227c45 40 87 58 147 63zM322 295l-70 -277c57 10 88 25 121 58c46 45 79 135 79 212c0 60 -28 104 -65 104c-15 0 -29 -8 -40 -23c-8 -11 -13 -26 -25 -74z" />
    <glyph glyph-name="chi" unicode="&#x3c7;" horiz-adv-x="440" 
d="M447 434l-232 -326c5 -162 22 -222 64 -222c29 0 52 24 77 81l13 -7c-30 -88 -75 -145 -112 -145c-31 0 -48 30 -58 99c-8 54 -13 105 -14 155l-168 -241h-85l247 342c-10 166 -17 186 -74 191c-29 5 -43 18 -43 40c0 26 22 43 55 43c64 0 80 -41 90 -240l157 230h83z
" />
    <glyph glyph-name="psi" unicode="&#x3c8;" horiz-adv-x="621" 
d="M435 434l-111 -417c72 9 117 32 158 80c39 45 67 114 67 165c0 34 -4 43 -39 89c-12 15 -18 31 -18 45c0 25 22 48 47 48c35 0 57 -39 57 -99c0 -74 -34 -178 -77 -239c-51 -71 -111 -105 -202 -113l-44 -165h-72l45 168c-48 5 -71 13 -100 37c-32 27 -48 60 -48 101
c0 20 5 50 15 87l33 123c6 22 7 27 7 34c0 11 -5 17 -14 17c-24 0 -57 -36 -88 -95l-15 8c23 44 35 63 54 84c29 32 65 52 95 52c25 0 44 -25 44 -56c0 -14 -3 -33 -8 -52l-38 -143c-8 -29 -14 -67 -14 -90c0 -48 29 -77 83 -84l111 415h72z" />
    <glyph glyph-name="omega" unicode="&#x3c9;" horiz-adv-x="706" 
d="M232 440l15 -13c-17 -20 -38 -57 -58 -99c-35 -73 -55 -155 -55 -221c0 -57 23 -92 61 -92c39 0 89 39 133 102c-3 29 -4 43 -4 62c0 98 29 163 73 163c21 0 32 -15 32 -42c0 -46 -18 -92 -72 -182c14 -69 42 -103 82 -103c80 0 168 128 168 244c0 42 -7 56 -51 96
c-16 16 -25 32 -25 47c0 23 20 42 43 42c43 0 75 -52 75 -120c0 -172 -105 -334 -215 -334c-49 0 -83 35 -98 99c-49 -66 -98 -99 -150 -99c-72 0 -125 69 -125 165c0 111 50 195 171 285z" />
    <glyph glyph-name="iotadieresis" unicode="&#x3ca;" horiz-adv-x="278" 
d="M211 100l12 -14c-54 -65 -95 -96 -128 -96c-27 0 -42 12 -42 32c0 10 2 22 5 36l76 282c5 19 7 31 7 41c0 17 -8 24 -27 24c-9 0 -17 -1 -33 -4l5 19c46 4 97 12 147 24l-101 -379c-1 -5 -2 -10 -2 -13c0 -6 7 -12 15 -12c14 0 42 25 66 60zM153 607c27 0 50 -23 50 -50
s-22 -48 -49 -48c-28 0 -51 23 -51 50s22 48 50 48zM294 607c27 0 50 -23 50 -50s-22 -48 -49 -48c-28 0 -51 23 -51 50s22 48 50 48z" />
    <glyph glyph-name="upsilondieresis" unicode="&#x3cb;" horiz-adv-x="459" 
d="M49 297l-15 8c44 90 95 139 143 139c27 0 47 -24 47 -56c0 -11 -4 -37 -7 -49l-40 -148c-11 -42 -18 -82 -18 -102c0 -44 23 -74 58 -74c42 0 88 35 123 94c30 51 49 110 49 150c0 29 -8 48 -32 83c-19 28 -24 39 -24 56c0 26 20 46 44 46c34 0 57 -35 57 -84
c0 -70 -24 -169 -59 -237c-42 -83 -108 -133 -177 -133c-67 0 -116 46 -116 109c0 22 4 49 12 78l43 162c5 19 7 27 7 34c0 11 -6 18 -14 18c-20 0 -58 -45 -81 -94zM245 607c27 0 50 -23 50 -50s-22 -48 -49 -48c-28 0 -51 23 -51 50s22 48 50 48zM399 607
c27 0 50 -23 50 -50s-22 -48 -49 -48c-28 0 -51 23 -51 50s22 48 50 48z" />
    <glyph glyph-name="omicrontonos" unicode="&#x3cc;" 
d="M310 444c80 0 138 -69 138 -166c0 -82 -38 -164 -102 -221c-51 -45 -104 -68 -153 -68c-81 0 -137 67 -137 166c0 146 126 289 254 289zM301 419c-39 0 -76 -26 -106 -74c-40 -62 -66 -155 -66 -230c0 -63 28 -101 73 -101c42 0 79 29 110 86c35 65 59 154 59 219
c0 58 -29 100 -70 100zM300 482l6 56c10 106 24 134 65 134c19 0 29 -11 29 -32c0 -20 -14 -62 -36 -111l-22 -47h-42z" />
    <glyph glyph-name="upsilontonos" unicode="&#x3cd;" horiz-adv-x="459" 
d="M49 297l-15 8c44 90 95 139 143 139c27 0 47 -24 47 -56c0 -11 -4 -37 -7 -49l-40 -148c-11 -42 -18 -82 -18 -102c0 -44 23 -74 58 -74c42 0 88 35 123 94c30 51 49 110 49 150c0 29 -8 48 -32 83c-19 28 -24 39 -24 56c0 26 20 46 44 46c34 0 57 -35 57 -84
c0 -70 -24 -169 -59 -237c-42 -83 -108 -133 -177 -133c-67 0 -116 46 -116 109c0 22 4 49 12 78l43 162c5 19 7 27 7 34c0 11 -6 18 -14 18c-20 0 -58 -45 -81 -94zM269 482l6 56c10 105 24 134 65 134c19 0 29 -11 29 -32c0 -20 -14 -62 -36 -111l-22 -47h-42z" />
    <glyph glyph-name="omegatonos" unicode="&#x3ce;" horiz-adv-x="698" 
d="M398 482l5 56c11 105 25 134 66 134c19 0 29 -11 29 -32c0 -20 -13 -61 -37 -111l-21 -47h-42zM228 440l15 -13c-60 -70 -113 -221 -113 -320c0 -57 23 -92 61 -92c39 0 89 39 133 102c-3 29 -4 44 -4 62c0 98 29 163 73 163c21 0 32 -15 32 -42c0 -46 -19 -93 -72 -182
c15 -69 42 -103 82 -103c80 0 168 128 168 244c0 42 -7 56 -51 96c-16 16 -25 32 -25 47c0 23 20 42 43 42c43 0 75 -52 75 -120c0 -172 -105 -334 -215 -334c-49 0 -83 35 -98 99c-48 -66 -98 -99 -150 -99c-72 0 -125 69 -125 165c0 111 50 194 171 285z" />
    <glyph glyph-name="theta1" unicode="&#x3d1;" horiz-adv-x="491" 
d="M517 342l-7 -24c-11 6 -18 8 -34 8h-12c-24 -93 -46 -151 -75 -203c-48 -84 -119 -133 -191 -133s-120 45 -117 109c1 23 5 48 13 74l15 53c10 34 10 34 10 44s-4 15 -11 15c-19 0 -50 -28 -82 -76l-15 10c43 70 95 113 140 113c28 0 46 -20 46 -53c0 -10 -2 -23 -5 -34
l-26 -90c-10 -34 -14 -58 -14 -80c0 -36 22 -60 54 -60c46 0 80 37 117 126c23 56 31 80 62 189c-139 6 -222 65 -222 161c0 93 81 166 185 166c92 0 144 -60 144 -166c0 -40 -5 -71 -22 -143c21 0 30 -2 47 -6zM390 352c23 99 30 146 30 187c0 58 -26 93 -71 93
c-65 0 -121 -70 -121 -151c0 -42 23 -80 63 -103c26 -15 52 -22 99 -26z" />
    <glyph glyph-name="phi1" unicode="&#x3d5;" horiz-adv-x="518" 
d="M257 -15l-46 -170h-89l48 169c-83 5 -131 65 -131 167c0 162 124 309 272 322c7 30 11 58 15 97c4 46 7 58 18 77c15 25 38 39 65 39c28 0 43 -15 43 -41c0 -22 -3 -30 -36 -101c-12 -26 -20 -45 -28 -71c93 -4 146 -65 146 -170c0 -156 -129 -305 -277 -318zM177 10
l127 438c-96 -21 -179 -161 -179 -302c0 -74 21 -129 52 -136zM382 449l-118 -439c103 25 183 155 183 298c0 81 -23 132 -65 141z" />
    <glyph glyph-name="omega1" unicode="&#x3d6;" horiz-adv-x="706" 
d="M248 450h110c112 0 151 -4 200 -20c72 -24 116 -89 116 -171c0 -52 -20 -116 -54 -169c-40 -65 -87 -97 -143 -97c-54 0 -84 28 -100 95c-37 -62 -83 -95 -130 -95c-63 0 -102 52 -102 134c0 101 41 197 106 250c20 17 35 26 67 41c-63 -2 -73 -3 -120 -12zM377 129
c1 56 2 67 12 97c10 31 25 48 41 48c12 0 21 -12 21 -28c0 -13 -3 -21 -20 -52c-9 -16 -19 -55 -19 -73c0 -38 27 -66 64 -66c34 0 67 22 89 60c26 43 42 96 42 139c0 112 -79 163 -250 164c-26 -18 -49 -41 -68 -70c-32 -48 -60 -143 -60 -204c0 -55 22 -86 60 -86
c32 0 58 21 88 71z" />
    <glyph glyph-name="uni0400" unicode="&#x400;" horiz-adv-x="611" 
d="M649 662l-30 -155l-21 2c1 17 1 29 1 45c0 61 -35 75 -195 75c-58 0 -68 -4 -74 -26l-65 -237c36 1 68 2 81 2c91 4 101 10 138 97l19 -5l-67 -235l-20 5c5 23 6 33 6 51c0 21 -2 29 -11 36c-8 7 -32 11 -61 12l-46 1l-48 3c-13 -51 -26 -102 -31 -117
c-24 -88 -35 -136 -35 -149c0 -24 24 -34 80 -34c78 0 146 10 183 28c44 20 71 46 117 111l17 -8l-62 -164h-514v16c57 10 64 17 81 75l121 449c6 22 11 52 11 64c0 28 -15 36 -79 42v16h504zM492 714l-143 107c-13 10 -19 21 -19 33c0 19 15 34 35 34c15 0 27 -7 40 -23
l119 -151h-32z" />
    <glyph glyph-name="afii10023" unicode="&#x401;" horiz-adv-x="611" 
d="M266 331l-64 -239c-4 -15 -5 -20 -5 -27c0 -24 13 -28 98 -28c67 0 130 19 177 53c34 24 54 50 76 98h16l-61 -188h-494l5 18c59 2 78 20 95 87l122 458c4 14 6 28 6 40c0 15 -8 28 -21 34c-10 5 -23 7 -58 7l4 18h481l-42 -158h-18c4 17 5 24 5 36c0 62 -39 86 -140 86
h-103l-70 -259h67c77 -2 109 22 131 100h19l-66 -241h-17c7 33 9 42 9 58c0 33 -23 47 -75 47h-77zM347 830c31 0 57 -26 57 -57s-25 -55 -56 -55c-32 0 -58 26 -58 58c0 30 25 54 57 54zM525 830c31 0 57 -26 57 -57s-25 -55 -56 -55c-32 0 -58 26 -58 58c0 30 25 54 57 54
z" />
    <glyph glyph-name="afii10051" unicode="&#x402;" horiz-adv-x="797" 
d="M474 626l-68 -257c58 9 104 13 144 13c107 0 174 -63 174 -164c0 -135 -111 -241 -252 -241c-67 0 -101 23 -101 68c0 36 21 60 53 60c27 0 45 -16 45 -39c0 -10 -1 -14 -10 -32c-1 -2 -1 -4 -1 -6c0 -12 12 -20 28 -20c69 0 134 104 134 215c0 76 -36 116 -105 116
c-30 0 -66 -2 -119 -8l-89 -331h-185l5 18c74 0 93 14 111 87l140 521h-37c-97 3 -159 -45 -179 -138h-19l47 174h544l-47 -174h-17c5 27 7 48 7 69c0 45 -27 69 -79 69h-124z" />
    <glyph glyph-name="afii10052" unicode="&#x403;" horiz-adv-x="569" 
d="M346 626l-141 -526c-4 -17 -6 -28 -6 -39c0 -31 17 -42 72 -43l-5 -18h-259l5 18c61 1 81 19 98 87l122 458c4 13 6 27 6 37c0 33 -16 43 -72 44l5 18h461l-46 -174h-17c6 35 8 50 8 69c0 27 -10 49 -29 60c-11 7 -24 9 -55 9h-147zM371 716l163 162c6 7 15 10 25 10
c21 0 37 -16 37 -36c0 -13 -5 -21 -17 -28l-172 -108h-36z" />
    <glyph glyph-name="afii10053" unicode="&#x404;" horiz-adv-x="669" 
d="M664 671h17l-42 -197h-17c1 11 1 22 1 30c0 78 -55 129 -137 129c-85 0 -170 -55 -226 -146c-19 -30 -28 -52 -48 -114h177c67 -2 98 23 119 96h16l-65 -245h-16c8 31 10 45 10 62c0 20 -7 35 -21 43c-12 7 -20 8 -62 8h-167c-5 -32 -6 -46 -6 -68
c0 -146 63 -229 173 -229c81 0 145 37 207 119l18 -13c-31 -48 -47 -68 -76 -93c-51 -42 -110 -63 -177 -63c-151 0 -254 116 -254 288c0 212 183 393 399 393c38 0 60 -4 101 -19c17 -6 26 -8 36 -8c17 0 25 5 40 27z" />
    <glyph glyph-name="afii10054" unicode="&#x405;" 
d="M483 475l-19 3c-2 67 -11 101 -33 126c-22 24 -52 37 -90 37c-69 0 -111 -39 -111 -102c0 -50 9 -65 102 -157c93 -93 116 -133 116 -199c0 -115 -87 -201 -203 -201c-32 0 -59 6 -106 23c-27 9 -41 13 -52 13c-21 0 -32 -10 -39 -33h-18l32 226l21 -2
c-2 -8 -2 -14 -2 -21c0 -97 64 -170 150 -170c74 0 129 57 129 134c0 44 -13 70 -62 120c-2 3 -21 23 -39 43c-18 19 -38 40 -40 42c-63 66 -78 95 -78 151c0 98 74 167 179 167c32 0 63 -5 86 -14c24 -9 34 -11 46 -11c23 0 32 5 46 26h23z" />
    <glyph glyph-name="afii10055" unicode="&#x406;" horiz-adv-x="333" 
d="M250 18l-5 -18h-259l5 18c61 1 81 19 98 87l122 458c4 14 6 26 6 39c0 17 -10 31 -26 37c-9 3 -22 5 -46 5l5 18h272l-5 -18c-73 0 -91 -14 -110 -87l-123 -457c-4 -15 -6 -31 -6 -41c0 -16 10 -30 26 -36c9 -3 22 -5 46 -5z" />
    <glyph glyph-name="afii10056" unicode="&#x407;" horiz-adv-x="333" 
d="M250 18l-5 -18h-259l5 18c61 1 81 19 98 87l122 458c4 14 6 26 6 40c0 16 -10 30 -26 36c-9 3 -22 5 -46 5l5 18h272l-5 -18c-73 0 -91 -14 -110 -87l-123 -457c-4 -15 -6 -31 -6 -41c0 -16 10 -30 26 -36c9 -3 22 -5 46 -5zM215 830c31 0 57 -26 57 -57s-25 -55 -56 -55
c-32 0 -58 26 -58 58c0 30 25 54 57 54zM389 830c31 0 57 -26 57 -57s-25 -55 -56 -55c-32 0 -58 26 -58 58c0 30 25 54 57 54z" />
    <glyph glyph-name="afii10057" unicode="&#x408;" horiz-adv-x="444" 
d="M235 644l5 18h257l-5 -18c-49 -2 -70 -23 -86 -87l-99 -368c-15 -60 -40 -109 -69 -139c-37 -38 -86 -61 -130 -61c-61 0 -106 40 -106 92c0 39 28 70 63 70c26 0 47 -20 47 -46c0 -12 -4 -20 -14 -31c-11 -11 -13 -15 -13 -24c0 -14 12 -24 30 -24c32 0 60 35 75 91
l119 446c4 14 6 26 6 40c0 31 -20 42 -80 41z" />
    <glyph glyph-name="afii10058" unicode="&#x409;" horiz-adv-x="927" 
d="M757 662l-5 -18c-75 0 -91 -13 -110 -85l-48 -177c22 2 32 3 48 3c143 0 231 -67 231 -177c0 -67 -36 -127 -99 -165c-53 -31 -109 -43 -208 -43h-245l5 18c61 2 80 19 98 87l139 521h-171c-75 -294 -117 -420 -178 -527c-41 -72 -92 -109 -151 -109c-46 0 -74 22 -74 58
c0 29 21 48 53 48c16 0 24 -3 47 -17c13 -8 20 -11 28 -11c31 0 62 43 104 140c42 101 116 351 116 395c0 27 -25 41 -72 41h-9l4 18h497zM584 345l-79 -301c26 -5 40 -6 59 -6c122 0 205 73 205 180c0 85 -51 129 -149 129c-17 0 -23 0 -36 -2z" />
    <glyph glyph-name="afii10059" unicode="&#x40a;" horiz-adv-x="921" 
d="M517 367l54 196c5 18 6 26 6 38c0 18 -10 33 -27 38c-11 4 -18 5 -47 5l7 18h271l-5 -18c-73 0 -91 -14 -110 -87l-51 -190c90 0 100 -1 138 -10c91 -21 143 -78 143 -156c0 -62 -37 -121 -98 -158c-53 -32 -108 -43 -208 -43h-245l5 18c61 2 80 19 98 87l62 226h-271
l-62 -231c-4 -18 -6 -27 -6 -39c0 -18 10 -32 26 -38c11 -3 19 -4 46 -5l-5 -18h-259l5 18c61 2 81 19 98 87l122 458c4 12 6 27 6 38c0 32 -17 42 -72 43l5 18h272l-5 -18c-73 0 -91 -14 -110 -87l-51 -190h268zM605 332l-76 -288c28 -5 41 -6 61 -6c117 0 202 72 202 171
c0 48 -20 84 -58 105c-26 14 -57 18 -129 18z" />
    <glyph glyph-name="afii10060" unicode="&#x40b;" horiz-adv-x="799" 
d="M450 626l-69 -258c49 3 71 4 101 4c142 0 201 -35 201 -119c0 -20 -4 -42 -14 -79l-21 -74c-3 -10 -5 -27 -5 -38c0 -32 17 -43 71 -44l-5 -18h-259l5 18c62 1 81 19 98 87l26 94c7 27 8 33 8 49c0 59 -32 83 -111 83c-31 0 -68 -1 -104 -4l-62 -227
c-5 -18 -7 -28 -7 -38c0 -32 17 -43 70 -44l-4 -18h-258l5 18c62 1 81 19 98 87l140 521h-60c-83 -1 -138 -42 -153 -114h-15l40 150h554l-40 -150h-15c3 20 4 29 4 42c0 54 -27 72 -105 72h-114z" />
    <glyph glyph-name="afii10061" unicode="&#x40c;" horiz-adv-x="664" 
d="M261 349l-66 -249c-3 -15 -5 -27 -5 -40c0 -15 8 -28 21 -35c10 -5 22 -7 58 -7l-6 -18h-268l5 18c63 1 83 18 100 87l123 458c4 14 6 29 6 39c0 16 -8 29 -21 35c-10 5 -22 7 -55 7l5 18h267l-5 -18c-65 -1 -84 -17 -102 -87l-51 -191l279 234c19 16 21 18 21 26
c0 14 -13 18 -50 18l5 18h201l-6 -18c-40 -1 -65 -11 -108 -44l-264 -216l141 -254c50 -90 80 -113 143 -112l-6 -18h-269l6 18c45 4 61 13 61 34c0 12 -6 29 -17 48zM436 716l162 162c7 7 15 10 25 10c21 0 37 -16 37 -36c0 -13 -5 -21 -17 -28l-172 -108h-35z" />
    <glyph glyph-name="uni040D" unicode="&#x40d;" horiz-adv-x="722" 
d="M574 505l-384 -409c-3 -13 -5 -25 -5 -36c0 -17 10 -32 26 -37c11 -4 18 -4 46 -5l-5 -18h-259l5 18c61 1 81 19 98 87l122 458c4 12 6 27 6 37c0 33 -17 43 -72 44l5 18h272l-5 -18c-73 0 -91 -14 -110 -87l-104 -388l383 411c2 10 2 14 2 20c0 33 -17 43 -72 44l5 18
h272l-5 -18c-73 0 -92 -14 -110 -87l-123 -457c-4 -16 -6 -28 -6 -39c0 -31 17 -42 72 -43l-5 -18h-259l5 18c61 1 80 18 98 87zM507 714l-143 107c-14 11 -20 21 -20 33c0 19 15 34 35 34c16 0 27 -7 40 -23l119 -151h-31z" />
    <glyph glyph-name="afii10062" unicode="&#x40e;" horiz-adv-x="673" 
d="M591 799v7c0 31 18 50 46 50c25 0 42 -14 42 -36c0 -16 -10 -37 -25 -54c-31 -33 -81 -51 -141 -51c-79 0 -131 33 -131 85c0 33 22 56 54 56c24 0 40 -14 40 -35c0 -9 -2 -14 -12 -32c-3 -6 -5 -11 -5 -15c0 -16 29 -31 60 -31c39 0 73 19 73 41c0 3 0 3 -1 15zM151 662
h282l-6 -18h-21c-37 0 -54 -15 -54 -47c0 -9 1 -15 2 -22l77 -330l185 292c42 66 47 76 47 88s-15 19 -41 19h-29l5 18h209l-5 -18c-54 -3 -91 -38 -167 -160l-163 -264c-81 -129 -88 -140 -122 -182c-30 -38 -68 -57 -113 -57c-55 0 -97 34 -97 77c0 31 22 53 52 53
c24 0 27 -2 64 -43c9 -10 20 -16 30 -16c19 0 43 27 85 97l-124 426c-14 51 -33 68 -81 69h-19z" />
    <glyph glyph-name="afii10145" unicode="&#x40f;" horiz-adv-x="722" 
d="M179 37h271l140 525c4 16 6 28 6 39c0 32 -17 42 -72 43l5 18h272l-5 -18c-74 0 -92 -14 -111 -87l-122 -458c-4 -15 -6 -27 -6 -38c0 -32 17 -42 71 -43l-5 -18h-161c-111 4 -148 -29 -197 -175h-18c13 49 17 76 17 103c0 31 -9 53 -27 63c-13 8 -22 9 -65 9h-173l5 18
c61 1 81 18 98 86l122 458c4 13 6 28 6 38c0 33 -17 43 -73 44l8 18h270l-5 -18c-73 0 -91 -14 -110 -87z" />
    <glyph glyph-name="afii10017" unicode="&#x410;" horiz-adv-x="611" 
d="M371 208h-179l-96 -138c-6 -9 -10 -19 -10 -25c0 -18 15 -27 44 -27h20l-4 -18h-198l4 18h12c35 -1 51 11 97 73l406 571h17l-23 -558c-1 -26 -1 -26 -1 -33c0 -41 15 -53 63 -53h24l-5 -18h-264l4 18h23c47 0 58 14 61 73zM372 244l10 236l-165 -236h155z" />
    <glyph glyph-name="afii10018" unicode="&#x411;" horiz-adv-x="590" 
d="M598 662l-47 -174h-17c5 27 7 45 7 65c0 48 -27 73 -79 73h-128l-66 -249c24 3 36 4 54 4c135 0 219 -66 219 -174c0 -123 -111 -207 -274 -207h-272l5 18c61 1 80 18 98 86l122 459c4 14 6 27 6 37c0 33 -16 43 -72 44l5 18h439zM257 337l-77 -287c30 -10 44 -13 69 -13
c116 0 188 66 188 171c0 89 -45 136 -131 136c-18 0 -28 -1 -49 -7z" />
    <glyph glyph-name="afii10019" unicode="&#x412;" horiz-adv-x="611" 
d="M170 662h227c67 0 113 -11 146 -37c32 -24 53 -68 53 -108c0 -45 -25 -95 -64 -125c-25 -20 -47 -30 -100 -43c76 -28 111 -72 111 -141c0 -67 -36 -130 -95 -166c-53 -34 -103 -42 -251 -42h-192l5 18c66 1 85 17 103 87l123 457c4 15 6 29 6 40c0 17 -10 31 -26 37
c-11 4 -20 5 -51 5zM345 621l-68 -254c33 -1 34 -1 47 -1c107 0 176 62 176 158c0 64 -43 101 -119 101c-14 0 -21 -1 -36 -4zM268 332l-77 -286c28 -6 40 -8 62 -8c110 0 186 73 186 179c0 77 -48 117 -139 117c-5 0 -19 -1 -32 -2z" />
    <glyph glyph-name="afii10020" unicode="&#x413;" horiz-adv-x="569" 
d="M350 626l-141 -526c-4 -17 -6 -28 -6 -39c0 -31 17 -42 72 -43l-5 -18h-259l5 18c61 1 81 19 98 87l122 458c4 13 6 27 6 37c0 33 -16 43 -72 44l5 18h461l-46 -174h-17c6 35 8 50 8 69c0 27 -10 49 -29 60c-11 7 -24 9 -55 9h-147z" />
    <glyph glyph-name="afii10021" unicode="&#x414;" horiz-adv-x="636" 
d="M716 662l-5 -18c-73 0 -91 -14 -109 -84l-127 -475c-3 -9 -4 -17 -4 -24c0 -21 14 -30 48 -30h53l-52 -187h-18c1 8 2 14 3 17c8 38 9 49 9 68c0 49 -22 71 -72 71h-336c-96 0 -125 -27 -170 -156h-18l50 187h24c51 0 70 9 111 54c68 76 109 163 147 311
c24 93 38 168 38 201s-21 47 -67 47h-16l4 18h507zM523 626h-180c-10 -42 -24 -108 -43 -199c-42 -190 -104 -316 -195 -391h260z" />
    <glyph glyph-name="afii10022" unicode="&#x415;" horiz-adv-x="611" 
d="M266 331l-64 -239c-4 -15 -5 -20 -5 -27c0 -24 13 -28 98 -28c67 0 130 19 177 53c34 24 54 50 76 98h16l-61 -188h-494l5 18c59 2 78 20 95 87l122 458c4 14 6 28 6 40c0 15 -8 28 -21 34c-10 5 -23 7 -58 7l4 18h481l-42 -158h-18c4 17 5 24 5 36c0 62 -39 86 -140 86
h-103l-70 -259h67c77 -2 109 22 131 100h19l-66 -241h-17c7 33 9 42 9 58c0 33 -23 47 -75 47h-77z" />
    <glyph glyph-name="afii10024" unicode="&#x416;" horiz-adv-x="916" 
d="M451 358l48 205c2 11 4 25 4 35c0 20 -10 35 -27 41c-11 4 -19 5 -46 5l4 18h272l-4 -18c-74 0 -91 -14 -108 -87l-46 -199h16c29 25 59 50 89 75c29 25 59 51 88 75c95 79 119 103 119 122c0 10 -11 14 -33 14h-18l5 18h194l-5 -18c-43 -4 -74 -25 -187 -123
c-72 -62 -101 -87 -179 -149l148 -292c21 -41 52 -63 86 -62l-5 -18h-231l4 18c29 0 48 13 48 30c0 8 0 9 -14 37l-114 240h-19l-52 -225c-4 -17 -5 -25 -5 -35c0 -17 6 -29 18 -37c10 -7 21 -9 55 -10l-4 -18h-259l4 18c62 1 80 18 95 87l52 220h-18l-247 -245l-16 -15
c-13 -12 -17 -17 -17 -25c0 -14 7 -19 34 -22l-4 -18h-232l5 18c47 16 73 33 124 81l293 283c-40 55 -55 78 -93 139c-62 99 -81 119 -121 123l5 18h193l-5 -18h-17c-30 0 -44 -8 -44 -27c0 -50 63 -154 155 -259h12z" />
    <glyph glyph-name="afii10025" unicode="&#x417;" horiz-adv-x="495" 
d="M148 480h-17l39 186h16c0 -18 8 -28 23 -28c10 0 10 0 61 17c17 6 47 10 72 10c99 0 165 -57 165 -143c0 -50 -22 -93 -63 -125c-29 -23 -54 -33 -110 -47c35 -10 50 -17 68 -30c36 -27 55 -69 55 -121c0 -120 -103 -209 -242 -209c-69 0 -122 22 -164 66
c-23 26 -35 47 -54 96l24 9c35 -79 86 -117 162 -117c98 0 170 71 170 168c0 79 -53 125 -146 125c-9 0 -14 0 -26 -1l12 37c15 -2 22 -2 33 -2c107 0 180 57 180 141c0 66 -44 112 -109 112c-71 0 -121 -47 -149 -144z" />
    <glyph glyph-name="afii10026" unicode="&#x418;" horiz-adv-x="722" 
d="M574 505l-384 -409c-3 -13 -5 -25 -5 -36c0 -17 10 -32 26 -37c11 -4 18 -4 46 -5l-5 -18h-259l5 18c61 1 81 19 98 87l122 458c4 12 6 27 6 37c0 33 -17 43 -72 44l5 18h272l-5 -18c-73 0 -91 -14 -110 -87l-104 -388l383 411c2 10 2 14 2 20c0 33 -17 43 -72 44l5 18
h272l-5 -18c-73 0 -92 -14 -110 -87l-123 -457c-4 -16 -6 -28 -6 -39c0 -31 17 -42 72 -43l-5 -18h-259l5 18c61 1 80 18 98 87z" />
    </font>
</defs>
</svg>
