<?xml version="1.0" standalone="no"?>
<!DOCTYPE svg PUBLIC "-//W3C//DTD SVG 1.1//EN" "http://www.w3.org/Graphics/SVG/1.1/DTD/svg11.dtd" >
<svg xmlns="http://www.w3.org/2000/svg" xmlns:xlink="http://www.w3.org/1999/xlink" version="1.1">
<metadata>
Created by FontForge 20170924 at Tue Aug 11 14:08:06 2015
 By www-data
Copyright (URW)++,Copyright 2014 by (URW)++ Design &#38; Development
</metadata>
<defs>
<font id="NimbusRomNo9L-MedIta" horiz-adv-x="500" >
  <font-face 
    font-family="Nimbus Roman No9 L"
    font-weight="500"
    font-style="italic"
    font-stretch="normal"
    units-per-em="1000"
    panose-1="0 0 6 0 0 0 0 0 0 0"
    ascent="692"
    descent="-308"
    x-height="444"
    cap-height="662"
    bbox="-165 -321 1154 972"
    underline-thickness="67"
    underline-position="-34"
    slope="-15.3"
    stemh="33"
    stemv="119"
    unicode-range="U+0020-FB04"
  />
<missing-glyph horiz-adv-x="250" 
 />
    <glyph glyph-name="ff" unicode="ff" horiz-adv-x="631" 
d="M495 607v-10c45 58 98 86 162 86c63 0 105 -30 105 -77c0 -32 -22 -54 -53 -54c-30 0 -53 20 -53 46c0 11 2 17 14 36c2 2 3 5 3 7c0 5 -6 9 -14 9c-21 0 -43 -18 -59 -50c-14 -26 -25 -61 -48 -151h94l-11 -42h-91l-41 -183c-70 -317 -139 -427 -267 -427
c-58 0 -98 31 -98 78c0 31 22 54 53 54c28 0 49 -19 49 -45c0 -12 -4 -21 -13 -34c-3 -4 -5 -7 -5 -10c0 -5 9 -10 20 -10c35 0 55 35 78 133l103 444h-146l-40 -183c-70 -317 -139 -427 -267 -427c-58 0 -98 31 -98 78c0 31 22 54 53 54c28 0 49 -19 49 -45
c0 -12 -4 -21 -13 -34c-3 -4 -5 -7 -5 -10c0 -5 9 -10 20 -10c35 0 55 34 78 133l103 444h-74l12 42h70c36 152 115 234 225 234c63 0 105 -31 105 -76zM286 449h146c10 45 21 75 38 110c-12 -6 -17 -7 -27 -7c-31 0 -54 19 -54 45c0 12 2 18 15 37c2 2 3 5 3 7
c0 5 -6 9 -14 9c-21 0 -43 -18 -60 -50c-13 -25 -24 -60 -47 -151z" />
    <glyph glyph-name="fi" unicode="fi" horiz-adv-x="556" 
d="M549 461l-96 -349c-8 -28 -8 -28 -8 -35c0 -10 6 -16 16 -16c16 0 32 15 60 58l7 9l24 -16l-6 -10c-40 -73 -94 -114 -149 -114c-45 0 -75 26 -75 65c0 18 5 50 14 81l75 273h-159l-41 -183c-35 -159 -71 -268 -108 -327c-41 -67 -93 -100 -158 -100c-53 0 -89 31 -89 78
c0 33 18 54 47 54c31 0 55 -20 55 -45c0 -12 -3 -20 -13 -34c-3 -4 -5 -8 -5 -10c0 -6 7 -10 15 -10c32 0 49 31 73 133l103 444h-73l11 42h71c20 73 38 112 65 145c51 60 119 89 210 89c86 0 137 -32 137 -86c0 -34 -24 -59 -58 -59c-31 0 -54 21 -54 49c0 12 2 19 11 37
c1 3 2 6 2 9c0 10 -16 17 -41 17c-43 0 -73 -16 -96 -49c-17 -26 -29 -59 -56 -152z" />
    <glyph glyph-name="fl" unicode="fl" horiz-adv-x="556" 
d="M264 449h94l-12 -42h-91l-40 -183c-35 -158 -72 -269 -108 -327c-42 -68 -94 -100 -160 -100c-57 0 -97 32 -97 78c0 31 22 54 53 54c28 0 49 -19 49 -45c0 -12 -4 -21 -13 -34c-3 -4 -5 -7 -5 -10c0 -5 9 -10 19 -10c36 0 56 34 79 133l103 444h-74l12 42h70
c17 66 36 110 64 144c49 59 114 90 191 90c26 0 32 -1 82 -8c11 -1 20 -2 31 -2c13 0 35 2 60 6l26 4l-158 -571c-8 -28 -8 -28 -8 -35c0 -9 7 -16 16 -16c16 0 39 22 60 58l14 23l27 -15l-16 -25c-47 -78 -93 -114 -149 -114c-45 0 -75 26 -75 65c0 19 5 49 14 81l114 413
c-14 10 -20 21 -20 37c0 13 3 19 18 40c2 3 3 6 3 9c0 10 -14 17 -34 17c-36 0 -64 -16 -86 -49c-17 -26 -27 -55 -53 -152z" />
    <glyph glyph-name="ffi" unicode="ffi" horiz-adv-x="866" 
d="M76 449h71c36 154 114 234 231 234c52 0 94 -16 113 -43c5 -7 7 -16 8 -33c54 54 112 76 197 76c84 0 133 -32 133 -86c0 -34 -23 -59 -54 -59c-30 0 -53 21 -53 49c0 13 1 18 10 37c1 3 2 6 2 9c0 10 -16 17 -41 17c-42 0 -73 -16 -95 -49c-18 -27 -28 -55 -56 -152
l287 6l-94 -343c-9 -28 -9 -28 -9 -34c0 -10 7 -17 17 -17c16 0 29 13 60 58l26 -15c-51 -83 -93 -116 -151 -116c-45 0 -75 26 -75 65c0 19 5 45 15 81l75 273h-160l-40 -183c-36 -160 -71 -269 -108 -327c-42 -68 -94 -100 -159 -100c-58 0 -98 31 -98 78
c0 31 22 54 53 54c28 0 49 -19 49 -45c0 -11 -4 -22 -13 -34c-3 -4 -5 -7 -5 -10c0 -5 9 -10 20 -10c35 0 55 35 78 133l103 444h-154l-41 -183c-35 -158 -71 -269 -108 -328c-41 -66 -93 -99 -156 -99c-51 0 -85 31 -85 77c0 34 19 55 48 55c30 0 54 -20 54 -45
c0 -12 -3 -19 -13 -34c-3 -4 -5 -7 -5 -10c0 -6 5 -10 12 -10c13 0 25 8 34 22c13 17 19 37 36 111l103 444h-73zM267 449h154c13 45 25 78 38 104c-5 -1 -10 -1 -13 -1c-29 0 -52 20 -52 45c0 12 2 18 14 37c2 2 3 5 3 7c0 6 -8 9 -21 9c-35 0 -58 -15 -76 -50
c-12 -24 -24 -63 -47 -151z" />
    <glyph glyph-name=".notdef" horiz-adv-x="250" 
 />
    <glyph glyph-name="space" unicode=" " horiz-adv-x="250" 
 />
    <glyph glyph-name="exclam" unicode="!" horiz-adv-x="389" 
d="M227 202l-29 8c29 154 47 277 50 350c2 41 4 54 12 71c14 30 38 46 68 46c42 0 69 -29 69 -74c0 -25 -5 -40 -30 -86c-54 -107 -101 -213 -140 -315zM173 130c38 0 73 -35 73 -74s-32 -69 -74 -69c-41 0 -72 30 -72 70c0 41 32 73 73 73z" />
    <glyph glyph-name="quotedbl" unicode="&#x22;" horiz-adv-x="555" 
d="M208 394h-41l15 212c2 38 39 72 77 72c25 0 45 -22 45 -49c0 -12 -2 -19 -10 -37l-4 -9c-1 -2 -2 -4 -2 -5zM465 394h-41l15 212c3 38 39 72 77 72c26 0 46 -22 46 -49c0 -13 -1 -17 -11 -37c-4 -9 -6 -13 -6 -14z" />
    <glyph glyph-name="numbersign" unicode="#" 
d="M478 280l-20 -72h-96l-83 -208h-77l83 208h-112l-83 -208h-77l83 208h-95l19 72h105l53 133h-95l19 72h104l85 208h76l-83 -208h111l85 208h77l-84 -208h87l-20 -72h-96l-52 -133h86zM367 413h-112l-52 -133h111z" />
    <glyph glyph-name="dollar" unicode="$" 
d="M523 592l-41 -132l-21 5c1 10 1 22 1 28c0 69 -24 106 -84 126l-57 -213c61 -52 80 -71 103 -102c24 -30 37 -69 37 -106c0 -111 -106 -203 -228 -198l-23 1l-27 -100h-51l28 106c-62 15 -94 32 -146 78l41 141l22 -6c3 -108 23 -146 93 -178l71 258
c-105 80 -131 117 -131 184c0 102 83 179 193 179c10 0 17 0 37 -2l18 64h49l-19 -71c33 -6 79 -25 117 -48zM277 432l54 196c-6 2 -8 2 -15 2c-66 0 -108 -37 -108 -94c0 -39 17 -65 69 -104zM283 271l-65 -239h16c73 1 119 49 119 122c0 48 -15 73 -70 117z" />
    <glyph glyph-name="percent" unicode="%" horiz-adv-x="833" 
d="M615 685h55l-386 -693h-56zM690 351c72 0 119 -51 119 -131c0 -117 -94 -226 -195 -226c-68 0 -112 52 -112 135c0 116 90 222 188 222zM691 326c-16 0 -31 -11 -39 -27c-26 -54 -65 -197 -65 -241c0 -22 12 -36 30 -36c20 0 34 11 48 37c19 38 61 194 61 227
c0 23 -15 40 -35 40zM305 668c74 0 118 -49 118 -131c0 -121 -90 -226 -192 -226c-71 0 -114 50 -114 132c0 121 86 225 188 225zM306 642c-21 0 -37 -16 -50 -47c-19 -50 -55 -192 -55 -220c0 -24 13 -38 33 -38s34 11 46 35c17 33 60 202 60 233c0 22 -13 37 -34 37z" />
    <glyph glyph-name="ampersand" unicode="&#x26;" horiz-adv-x="778" 
d="M701 100l26 -21c-60 -73 -102 -97 -167 -97c-53 0 -93 18 -138 62c-67 -46 -120 -63 -192 -63c-112 0 -190 68 -190 166c0 46 20 92 56 130c34 35 64 53 180 103c-8 45 -11 67 -11 93c0 120 74 202 182 202c80 0 137 -47 137 -113c0 -67 -57 -120 -179 -170
c12 -75 45 -160 86 -225c58 73 73 100 73 127c0 22 -13 32 -56 38v25h210v-25c-62 -12 -66 -15 -202 -200c39 -51 71 -72 109 -72c27 0 47 11 76 40zM284 339c-82 -41 -113 -81 -113 -150c0 -79 54 -138 127 -138c30 0 55 7 96 28c-56 87 -83 150 -110 260zM396 429
c78 45 109 87 109 146c0 42 -19 67 -52 67c-45 0 -69 -41 -69 -116c0 -26 2 -38 12 -97z" />
    <glyph glyph-name="quotesingle" unicode="'" horiz-adv-x="278" 
d="M199 394h-41l15 212c2 38 39 72 77 72c25 0 45 -22 45 -49c0 -12 -2 -19 -10 -37l-4 -9c-1 -2 -2 -4 -2 -5z" />
    <glyph glyph-name="parenleft" unicode="(" horiz-adv-x="333" 
d="M352 678l18 -20c-80 -73 -116 -120 -152 -200c-41 -94 -65 -220 -65 -345c0 -117 16 -179 72 -275l-22 -15c-102 137 -143 248 -143 385c0 70 13 133 39 192c45 103 104 167 253 278z" />
    <glyph glyph-name="parenright" unicode=")" horiz-adv-x="333" 
d="M8 -177l-17 20c76 70 105 107 137 171c47 97 78 245 78 376c0 116 -18 183 -72 273l22 15c53 -70 73 -104 96 -159c31 -74 48 -152 48 -226c0 -95 -25 -181 -76 -261c-50 -78 -100 -126 -216 -209z" />
    <glyph glyph-name="asterisk" unicode="*" 
d="M282 477v12c-3 44 -5 53 -26 89c-13 22 -17 33 -17 49c0 31 19 51 50 51c30 0 50 -20 50 -52c0 -15 -4 -26 -17 -48c-20 -36 -23 -46 -25 -89v-12l11 6c29 17 41 29 64 66c21 35 38 48 62 48c25 0 49 -26 49 -54c0 -16 -9 -30 -26 -40c-14 -9 -23 -11 -52 -11
c-44 -1 -56 -4 -89 -23l-11 -6l11 -6c33 -18 43 -21 89 -22c29 -1 41 -3 53 -10c16 -9 26 -25 26 -41c0 -29 -22 -53 -49 -53c-25 0 -41 12 -62 47c-21 36 -31 46 -65 65l-11 6v-12c3 -44 6 -51 27 -88c12 -21 17 -35 17 -50c0 -30 -20 -50 -50 -50s-50 21 -50 52
c0 14 4 27 16 48c21 37 23 46 26 88v12l-11 -6c-33 -19 -43 -29 -64 -65c-21 -35 -36 -47 -61 -47c-27 0 -50 25 -50 54c0 15 10 31 26 40c12 7 24 9 52 10c44 1 56 4 89 22l11 6l-11 6c-33 18 -46 22 -90 23c-28 0 -38 2 -52 11c-17 11 -26 24 -26 40c0 29 23 54 49 54
c23 0 40 -13 62 -48c23 -37 35 -49 64 -66z" />
    <glyph glyph-name="plus" unicode="+" horiz-adv-x="570" 
d="M262 347l-1 207h87l1 -207h206v-87h-206l2 -207h-88l-1 207h-206v87h206z" />
    <glyph glyph-name="comma" unicode="," horiz-adv-x="250" 
d="M-12 -180l-13 24c78 41 116 80 116 115c0 15 -7 24 -30 39c-30 20 -40 36 -40 63c0 42 30 72 70 72c51 0 85 -39 85 -98c0 -80 -74 -165 -188 -215z" />
    <glyph glyph-name="hyphen" unicode="-" horiz-adv-x="333" 
d="M301 279l-23 -115h-243l23 115h243z" />
    <glyph glyph-name="period" unicode="." horiz-adv-x="250" 
d="M97 133c40 0 73 -33 73 -74c0 -40 -32 -72 -73 -72s-73 32 -73 73c0 42 32 73 73 73z" />
    <glyph glyph-name="slash" unicode="/" horiz-adv-x="278" 
d="M282 678h86l-312 -696h-86z" />
    <glyph glyph-name="zero" unicode="0" 
d="M354 676c91 0 150 -95 150 -241c0 -155 -77 -333 -175 -406c-38 -29 -78 -43 -119 -43c-97 0 -160 87 -160 221c0 145 60 304 151 398c44 46 99 71 153 71zM352 647c-36 0 -64 -40 -100 -142c-45 -130 -99 -360 -99 -424c0 -40 20 -66 50 -66c40 0 68 38 100 133
c20 59 73 265 87 341c7 34 11 68 11 86c0 45 -18 72 -49 72z" />
    <glyph glyph-name="one" unicode="1" 
d="M40 0v23c71 0 101 19 117 73l125 454c2 9 3 17 3 24c0 23 -15 33 -46 33c-19 0 -37 -2 -62 -5l2 23c114 17 177 29 267 51l-149 -554c-12 -43 -12 -44 -12 -53c0 -37 18 -46 96 -46l1 -23h-342z" />
    <glyph glyph-name="two" unicode="2" 
d="M448 189l-77 -189h-363v24c29 29 59 59 88 89c185 185 245 274 245 365c0 68 -35 109 -93 109c-51 0 -91 -26 -131 -85l-22 12c27 53 44 77 72 103c43 40 90 59 142 59c92 0 164 -73 164 -167c0 -74 -49 -155 -141 -234l-193 -165h148c80 2 101 14 137 79h24z" />
    <glyph glyph-name="three" unicode="3" 
d="M159 343l4 22c127 27 186 75 186 151c0 55 -34 90 -87 90c-46 0 -73 -18 -114 -75l-21 13c61 93 121 132 201 132c86 0 149 -58 149 -136c0 -59 -35 -106 -106 -141l-11 -6c57 -43 77 -81 77 -147c0 -144 -127 -259 -286 -259c-81 0 -132 31 -132 80c0 33 23 55 59 55
c26 0 42 -11 65 -45c15 -23 22 -34 25 -36c7 -8 23 -14 39 -14c60 0 108 71 108 159c0 67 -25 115 -72 139c-24 12 -43 17 -84 18z" />
    <glyph glyph-name="four" unicode="4" 
d="M482 245l-27 -97h-67l-41 -148h-126l39 148h-241l27 104l420 424h63l-116 -431h69zM86 245h201l76 277z" />
    <glyph glyph-name="five" unicode="5" 
d="M226 554l-33 -75c90 -19 118 -28 152 -50c62 -41 96 -105 96 -182c0 -147 -125 -260 -288 -260c-78 0 -130 31 -130 79c0 33 24 56 58 56c29 0 47 -13 71 -52c20 -34 32 -43 53 -43c70 0 132 75 132 159c0 64 -36 121 -97 153c-38 19 -70 26 -136 29l128 294h280
l-35 -108h-251z" />
    <glyph glyph-name="six" unicode="6" 
d="M528 672l6 -24c-132 -50 -214 -123 -273 -243c29 10 41 13 61 13c93 0 149 -65 149 -171c0 -146 -107 -262 -242 -262c-108 0 -173 79 -173 210c0 139 73 276 197 368c79 58 143 84 275 109zM280 378c-32 0 -41 -9 -61 -62c-32 -81 -52 -167 -52 -221
c0 -53 18 -78 55 -78c25 0 47 15 60 39c32 62 66 193 66 255c0 46 -21 67 -68 67z" />
    <glyph glyph-name="seven" unicode="7" 
d="M114 474h-26l85 188h377l-373 -662h-91l326 550h-132c-105 -1 -131 -13 -166 -76z" />
    <glyph glyph-name="eight" unicode="8" 
d="M362 377v-5c63 -67 87 -118 87 -182c0 -118 -92 -203 -219 -203c-114 0 -193 67 -193 165c0 84 55 142 177 184v5c-56 59 -74 96 -74 154c0 104 79 181 188 181c53 0 107 -21 141 -54c22 -23 34 -53 34 -88c0 -70 -39 -113 -141 -157zM240 318
c-78 -55 -107 -103 -107 -177c0 -77 37 -124 98 -124c62 0 106 53 106 128c0 52 -11 71 -97 173zM339 399c57 60 72 88 72 138c0 64 -32 106 -81 106c-46 0 -80 -40 -80 -95c0 -49 21 -84 89 -149z" />
    <glyph glyph-name="nine" unicode="9" 
d="M29 -10l-6 25c121 36 214 118 273 241c-25 -11 -38 -14 -60 -14c-91 0 -151 67 -151 167c0 150 106 267 242 267c49 0 88 -14 117 -44c37 -37 58 -97 58 -162c0 -141 -75 -281 -198 -372c-78 -58 -142 -83 -275 -108zM342 644c-31 0 -58 -21 -78 -62
c-30 -59 -56 -169 -56 -234c0 -40 23 -63 65 -63s49 8 77 88c28 82 41 145 41 202c0 46 -16 69 -49 69z" />
    <glyph glyph-name="colon" unicode=":" horiz-adv-x="333" 
d="M129 133c40 0 73 -33 73 -74c0 -40 -32 -72 -73 -72c-42 0 -73 32 -73 74c0 41 32 72 73 72zM219 454c40 0 73 -33 73 -74c0 -40 -32 -72 -73 -72c-42 0 -73 31 -73 74c0 41 32 72 73 72z" />
    <glyph glyph-name="semicolon" unicode=";" horiz-adv-x="333" 
d="M23 -181l-13 24c77 41 116 80 116 115c0 15 -7 24 -29 39c-31 20 -41 36 -41 63c0 42 30 72 70 72c51 0 85 -39 85 -98c0 -80 -74 -165 -188 -215zM219 454c40 0 73 -33 73 -74c0 -40 -32 -72 -73 -72c-42 0 -73 31 -73 73s32 73 73 73z" />
    <glyph glyph-name="less" unicode="&#x3c;" horiz-adv-x="570" 
d="M571 41l-509 223l-1 84l507 223v-96l-383 -169l385 -169z" />
    <glyph glyph-name="equal" unicode="=" horiz-adv-x="570" 
d="M554 449v-87h-499v87h499zM555 246v-87h-498l-1 87h499z" />
    <glyph glyph-name="greater" unicode="&#x3e;" horiz-adv-x="570" 
d="M63 41l-1 96l384 169l-385 169l-1 96l509 -223l1 -84z" />
    <glyph glyph-name="question" unicode="?" 
d="M227 206l-29 7c4 54 24 99 70 157l40 51c43 53 62 99 62 146c0 49 -26 79 -69 79c-31 0 -61 -18 -61 -38c0 -5 3 -11 11 -22c13 -16 19 -30 19 -45c0 -32 -27 -58 -60 -58c-35 0 -61 29 -61 67c0 74 72 127 172 127c105 0 175 -58 175 -144c0 -62 -36 -111 -123 -168
l-66 -42c-36 -25 -53 -48 -80 -117zM185 133c40 0 73 -33 73 -74c0 -40 -32 -72 -73 -72c-42 0 -73 32 -73 74c0 41 32 72 73 72z" />
    <glyph glyph-name="at" unicode="@" horiz-adv-x="832" 
d="M607 391l11 47h76l-68 -319c-1 -8 -2 -15 -2 -25c0 -35 15 -56 40 -56c33 0 62 21 87 63c30 50 49 123 49 184c0 183 -141 334 -312 334c-82 0 -159 -35 -210 -96c-65 -77 -102 -188 -102 -307c0 -94 23 -171 70 -234c64 -86 155 -132 263 -132c72 0 127 16 210 60
l14 -44c-104 -56 -159 -73 -236 -73c-229 0 -407 189 -407 432c0 248 176 442 399 442c202 0 360 -163 360 -372c0 -164 -92 -303 -200 -303c-52 0 -99 44 -100 93c-37 -57 -88 -92 -133 -92c-57 0 -101 63 -101 145c0 90 33 186 88 253c34 41 79 64 126 64
c38 0 53 -12 78 -64zM544 395c-27 2 -64 -23 -94 -63c-33 -44 -53 -109 -53 -175c0 -64 25 -105 64 -105c31 0 63 31 87 83c22 50 41 134 41 179c0 53 -14 78 -45 81z" />
    <glyph glyph-name="A" unicode="A" horiz-adv-x="667" 
d="M622 25v-25h-301v25c64 5 78 16 78 58c0 8 -5 49 -15 123h-213l-58 -101c-11 -18 -15 -32 -15 -45c0 -25 19 -35 65 -35v-25h-194v25c35 8 50 20 82 69l365 582h24l99 -566c13 -76 17 -80 83 -85zM193 246h184l-38 240z" />
    <glyph glyph-name="B" unicode="B" horiz-adv-x="667" 
d="M147 637v25h269c154 0 235 -50 235 -145c0 -41 -17 -80 -46 -104c-35 -29 -65 -42 -141 -61c101 -33 137 -72 137 -149c0 -126 -110 -203 -291 -203h-298v25c47 6 64 20 79 71l118 444c7 26 11 47 11 57c0 11 -7 24 -16 29c-12 7 -21 9 -57 11zM300 335l-64 -242
c-5 -18 -5 -20 -5 -28c0 -23 18 -33 57 -33c44 0 78 13 104 40c35 35 58 96 58 154c0 37 -12 65 -34 84c-21 16 -50 23 -116 25zM367 587l-59 -223c73 3 107 10 137 30c39 25 60 72 60 133c0 69 -28 103 -86 103c-33 0 -43 -8 -52 -43z" />
    <glyph glyph-name="C" unicode="C" horiz-adv-x="667" 
d="M702 678l-49 -232l-32 6c2 13 3 22 3 35c0 96 -50 156 -130 156c-41 0 -80 -15 -116 -45c-89 -75 -159 -246 -159 -390c0 -109 56 -174 150 -174c30 0 61 6 88 18c42 17 69 41 118 99l30 -21c-31 -44 -48 -61 -77 -84c-55 -42 -121 -64 -191 -64
c-163 0 -271 104 -271 259c0 239 182 437 401 437c41 0 85 -7 130 -21c15 -5 30 -8 37 -8c16 0 24 7 38 29h30z" />
    <glyph glyph-name="D" unicode="D" horiz-adv-x="722" 
d="M125 637v25h287c187 0 299 -102 299 -273c0 -223 -187 -389 -438 -389h-283v25c48 6 64 21 79 71l117 441c9 36 12 48 12 58c0 14 -4 23 -11 27c-6 4 -27 9 -62 15zM347 593l-124 -468s-1 -2 -1 -4c-8 -23 -12 -40 -12 -53c0 -24 16 -34 54 -34c94 0 163 36 216 112
c53 75 85 191 85 304c0 122 -54 181 -165 181c-31 0 -46 -10 -53 -38z" />
    <glyph glyph-name="E" unicode="E" horiz-adv-x="667" 
d="M614 192l-58 -192h-548v25c51 8 63 19 79 71l119 445c6 22 10 46 10 59c0 11 -4 20 -10 24c-7 4 -28 9 -63 14v24h534l-41 -188l-27 5c0 62 -7 87 -30 110c-27 27 -81 42 -153 42c-40 0 -52 -9 -62 -44l-59 -221c131 -1 156 12 202 105l28 -4l-72 -270l-27 5
c2 19 3 30 3 43c0 69 -29 88 -143 90l-54 -207c-4 -14 -5 -19 -7 -25c-5 -19 -8 -30 -8 -36c0 -25 17 -35 61 -35c85 0 152 18 207 57c39 27 60 52 94 108z" />
    <glyph glyph-name="F" unicode="F" horiz-adv-x="667" 
d="M542 467l-72 -270l-27 5c2 18 3 29 3 43c0 67 -30 87 -136 89l-52 -199c-1 -2 -2 -8 -4 -14c-8 -25 -11 -40 -11 -52c0 -31 15 -40 71 -44v-25h-292v25c51 7 63 18 79 71l119 444c6 22 10 46 10 60c0 11 -4 19 -10 23c-7 4 -28 9 -63 14v25h527l-41 -188l-27 5
c0 56 -7 82 -26 104c-27 31 -77 47 -151 47c-39 0 -52 -9 -61 -44l-59 -220c129 1 150 12 195 105z" />
    <glyph glyph-name="G" unicode="G" horiz-adv-x="722" 
d="M733 327v-26c-53 -4 -60 -11 -78 -81l-47 -179l-27 -13c-58 -27 -154 -46 -232 -46c-174 0 -294 109 -294 268c0 151 85 300 214 375c61 35 130 53 207 53c44 0 78 -6 122 -21c19 -7 27 -9 36 -9c20 0 31 8 41 30h31l-49 -219l-29 4c-3 68 -10 96 -32 129
c-21 32 -60 50 -107 50c-44 0 -87 -16 -124 -48c-89 -75 -155 -238 -155 -384c0 -124 57 -190 164 -190c38 0 78 13 92 30c4 5 4 5 26 81c26 90 30 108 30 135c0 9 -6 19 -12 23c-11 7 -19 8 -61 12v26h284z" />
    <glyph glyph-name="H" unicode="H" horiz-adv-x="778" 
d="M686 25v-25h-314v25c66 3 86 18 100 71l62 229h-237l-48 -179c-14 -50 -16 -61 -16 -78c0 -33 9 -38 72 -43v-25h-293v25c49 6 63 19 79 71l118 444c8 31 11 46 11 57c0 12 -4 22 -11 26c-6 4 -27 9 -62 14v25h314v-25c-64 -2 -84 -16 -100 -71l-52 -197h236l46 171
c5 20 10 48 10 60c0 11 -4 20 -10 23c-7 5 -18 8 -31 9l-32 5v25h295v-25c-51 -7 -64 -18 -80 -71l-105 -393c-21 -79 -24 -91 -24 -107c0 -29 17 -39 72 -41z" />
    <glyph glyph-name="I" unicode="I" horiz-adv-x="389" 
d="M295 25v-25h-293v25c49 6 63 19 79 71l119 444c5 20 10 48 10 60c0 11 -4 20 -10 23c-7 5 -18 8 -31 9l-32 5v25h295v-25c-51 -6 -65 -18 -81 -71l-110 -416c-15 -57 -18 -69 -18 -85c0 -29 15 -37 72 -40z" />
    <glyph glyph-name="J" unicode="J" 
d="M549 662v-25c-49 -6 -63 -19 -80 -71l-104 -392c-34 -130 -99 -190 -204 -190c-85 0 -143 40 -143 98c0 43 24 71 60 71c39 0 64 -24 64 -62c0 -15 -4 -23 -16 -33c-12 -9 -14 -13 -14 -22c0 -10 9 -16 27 -16c36 0 49 26 88 174l90 346c7 25 11 49 11 59s-4 20 -11 24
c-6 4 -26 8 -62 14v25h294z" />
    <glyph glyph-name="K" unicode="K" horiz-adv-x="667" 
d="M422 394l157 -335c11 -23 25 -31 62 -34l1 -25h-278v25c12 1 23 2 27 3c27 2 38 9 38 23c0 12 -3 20 -14 43l-113 239l-65 -246c-1 -5 -2 -12 -2 -16c0 -33 13 -43 66 -46v-25h-286v25c49 5 64 19 79 71l118 444c8 30 11 46 11 57c0 12 -4 22 -11 26c-6 4 -27 9 -62 14
v25h307v-25c-58 -4 -78 -19 -93 -71l-60 -225c94 79 117 100 194 173c56 52 76 78 76 96s-6 21 -56 27v25h209v-25c-42 -5 -50 -9 -93 -47z" />
    <glyph glyph-name="L" unicode="L" horiz-adv-x="611" 
d="M618 192l-58 -192h-547v25c49 7 64 20 79 71l119 444c5 20 10 49 10 61c0 10 -4 19 -10 22c-7 5 -18 8 -31 9l-32 5v25h314v-25c-65 -3 -84 -17 -100 -71l-125 -473c-3 -11 -5 -22 -5 -31c-1 -20 20 -30 63 -30c82 0 152 20 205 57c39 28 60 52 94 108z" />
    <glyph glyph-name="M" unicode="M" horiz-adv-x="889" 
d="M941 662v-25c-51 -6 -65 -19 -80 -71l-119 -444l-1 -5s-1 -3 -2 -5c-4 -18 -7 -33 -7 -45c0 -31 14 -39 72 -42v-25h-309v25c64 4 83 18 99 71l121 459l-368 -567h-28l-69 553l-98 -365c-14 -51 -19 -75 -19 -91c0 -40 16 -52 80 -60v-25h-205v25c54 11 61 22 99 151
l106 369c6 23 10 43 10 57c0 28 -9 32 -71 35v25h219l56 -475l304 475h210z" />
    <glyph glyph-name="N" unicode="N" horiz-adv-x="722" 
d="M335 662l215 -460l78 284c11 39 17 74 17 93c0 38 -21 53 -79 58v25h206l1 -25c-57 -13 -63 -21 -101 -151l-138 -501h-28l-257 543l-96 -352c-12 -43 -18 -74 -18 -92c0 -39 21 -54 80 -59v-25h-206v25c54 11 61 22 99 151l117 407c-20 43 -29 49 -83 54v25h193z" />
    <glyph glyph-name="O" unicode="O" horiz-adv-x="722" 
d="M476 678c138 0 241 -98 241 -230c0 -145 -80 -301 -202 -391c-66 -49 -141 -75 -219 -75c-141 0 -235 96 -235 238c0 137 84 296 202 383c67 49 141 75 213 75zM473 644c-64 0 -116 -40 -166 -130c-54 -95 -103 -274 -103 -377c0 -75 39 -121 102 -121c53 0 97 30 143 96
c66 96 125 292 125 413c0 71 -41 119 -101 119z" />
    <glyph glyph-name="P" unicode="P" horiz-adv-x="611" 
d="M143 637v25h284c138 0 212 -54 212 -155c0 -118 -105 -194 -268 -194c-25 0 -46 1 -82 5l-52 -196c-5 -19 -10 -48 -10 -58c0 -28 16 -36 72 -39v-25h-291v25c51 7 63 19 79 71l119 444c6 22 10 46 10 60c0 11 -4 19 -10 23c-7 4 -28 9 -63 14zM361 586l-62 -236
c17 -1 30 -2 41 -2c71 0 107 22 132 81c13 32 22 74 22 110c0 58 -30 91 -83 91c-19 0 -30 -4 -39 -14c-4 -5 -4 -5 -11 -30z" />
    <glyph glyph-name="Q" unicode="Q" horiz-adv-x="722" 
d="M663 -40l21 -18c-80 -109 -147 -148 -256 -148c-40 0 -73 6 -134 26c-51 16 -74 21 -103 21c-32 0 -57 -6 -113 -28l-14 24l154 128c14 13 15 13 16 15c1 1 1 2 2 4c-2 4 -5 6 -13 9c-52 19 -66 26 -92 50c-45 43 -70 102 -70 169c0 239 202 466 415 466
c140 0 241 -98 241 -233c0 -131 -65 -268 -173 -366c-77 -68 -131 -88 -259 -96c-18 -16 -28 -27 -36 -36c-2 -2 -4 -5 -7 -7c-1 -2 -2 -3 -2 -4c0 -3 8 -5 37 -7c46 -4 84 -10 109 -18l42 -13c38 -12 56 -15 82 -15c60 0 96 18 153 77zM473 644c-64 0 -116 -40 -166 -130
c-54 -95 -103 -274 -103 -377c0 -74 39 -120 101 -120c54 0 99 30 144 96c66 96 125 291 125 410c0 74 -40 121 -101 121z" />
    <glyph glyph-name="R" unicode="R" horiz-adv-x="667" 
d="M142 637v25h273c157 0 235 -47 235 -143c0 -54 -28 -104 -79 -138c-30 -21 -56 -31 -111 -42l84 -243c22 -58 32 -66 88 -71v-25h-200l-108 327h-29l-53 -191c-10 -34 -14 -55 -14 -69c0 -30 14 -38 72 -42v-25h-293v25c49 6 63 19 79 71l119 444c5 19 10 48 10 60
c0 11 -4 19 -10 23c-7 4 -18 7 -31 9zM362 586l-58 -227c62 1 100 8 125 24c43 28 71 87 71 152c0 61 -33 95 -90 95c-30 0 -39 -8 -48 -44z" />
    <glyph glyph-name="S" unicode="S" horiz-adv-x="556" 
d="M37 -18l34 222l29 -2c5 -60 12 -89 31 -120c26 -42 70 -66 122 -66c49 0 83 19 105 57c12 21 19 45 19 67c0 46 -34 93 -112 152c-57 43 -97 87 -119 129c-8 17 -13 40 -13 66c0 109 85 191 198 191c28 0 56 -5 97 -19c25 -8 41 -11 51 -11c20 0 34 8 43 26h30l-39 -199
l-27 4c-13 116 -52 164 -131 164c-63 0 -103 -40 -103 -103c0 -45 15 -67 77 -114c122 -91 168 -158 168 -245c0 -122 -88 -199 -225 -199c-41 0 -74 6 -122 24c-23 8 -36 11 -45 11c-20 0 -26 -6 -38 -35h-30z" />
    <glyph glyph-name="T" unicode="T" horiz-adv-x="611" 
d="M675 662l-34 -190l-27 2c-6 110 -44 153 -138 153l-135 -500c-8 -27 -11 -46 -11 -61c0 -32 12 -38 83 -41v-25h-328v25h14c50 0 76 21 90 71l143 531c-101 -1 -164 -42 -214 -141l-25 7l37 169h545z" />
    <glyph glyph-name="U" unicode="U" horiz-adv-x="722" 
d="M769 662v-25c-55 -11 -61 -21 -100 -151l-64 -226c-31 -108 -53 -160 -87 -199c-44 -52 -110 -79 -194 -79c-131 0 -222 68 -222 164v5c-1 25 11 87 32 169l54 204c8 31 14 61 14 74c0 27 -4 29 -72 39v25h308v-25c-62 -3 -76 -14 -93 -71l-79 -297
c-23 -85 -27 -104 -27 -131c0 -63 46 -101 121 -101c54 0 98 20 131 59c30 37 51 86 77 183l57 207c11 43 18 78 18 95c0 35 -23 51 -80 56v25h206z" />
    <glyph glyph-name="V" unicode="V" horiz-adv-x="667" 
d="M739 662v-25c-28 -9 -45 -21 -58 -39l-385 -616h-32l-78 504c-22 141 -28 151 -90 151v25h295v-25c-67 -6 -75 -11 -75 -43c0 -5 0 -11 1 -17l53 -397l186 299c39 62 58 104 58 126c0 9 -4 18 -11 22c-10 6 -10 6 -54 10v25h190z" />
    <glyph glyph-name="W" unicode="W" horiz-adv-x="889" 
d="M963 662v-24c-41 -6 -56 -18 -83 -72l-279 -584h-29l-62 484l-227 -484h-29l-80 573c-11 70 -13 73 -77 83v24h274v-25c-47 -5 -60 -17 -60 -52l1 -16l41 -346l147 308c-2 85 -12 99 -71 107v24h266v-25c-52 -5 -62 -14 -62 -57c0 -12 0 -13 6 -64l35 -293l152 324
c13 28 15 34 15 45c0 36 -7 41 -63 45v25h185z" />
    <glyph glyph-name="X" unicode="X" horiz-adv-x="667" 
d="M616 25v-25h-305v25c54 5 67 12 67 37c0 21 -12 65 -38 140c-13 38 -16 45 -20 59l-131 -146c-23 -25 -30 -37 -30 -50c0 -24 20 -36 65 -40v-25h-212v25c42 8 70 34 227 207c40 44 42 47 67 74l-84 269c-16 46 -31 56 -91 62v25h302v-25c-13 -1 -25 -3 -30 -3
c-32 -4 -43 -12 -43 -35c0 -14 11 -55 35 -128c2 -5 3 -11 6 -18c3 -12 7 -24 11 -36l92 98c51 54 69 79 69 96c0 7 -4 15 -8 17c-5 3 -21 6 -47 9v25h201v-25c-35 -5 -54 -17 -98 -60l-195 -203l74 -234c30 -94 44 -108 116 -115z" />
    <glyph glyph-name="Y" unicode="Y" horiz-adv-x="611" 
d="M265 310l-88 265c-19 53 -22 55 -73 62v25h280v-25c-54 -1 -69 -9 -69 -35c0 -18 10 -54 33 -119c19 -58 31 -95 45 -135l126 184c21 30 26 42 26 59c0 35 -14 45 -67 46v25h206v-25c-38 -8 -57 -22 -90 -68l-186 -264l-51 -189c-6 -23 -7 -31 -7 -44
c0 -37 12 -44 76 -47v-25h-318v25c68 5 82 15 99 71z" />
    <glyph glyph-name="Z" unicode="Z" horiz-adv-x="611" 
d="M582 192l-57 -192h-501v29l426 598h-77c-111 -2 -176 -40 -249 -145l-27 4l55 176h463v-29l-426 -598h70c142 -2 218 40 297 162z" />
    <glyph glyph-name="bracketleft" unicode="[" horiz-adv-x="333" 
d="M381 632h-68c-36 -1 -36 -1 -51 -62l-153 -668v-2c-1 -5 4 -14 10 -18c5 -3 13 -4 25 -4h77l-6 -35h-217l192 824h198z" />
    <glyph glyph-name="backslash" unicode="\" horiz-adv-x="278" 
d="M29 678h84l197 -696h-83z" />
    <glyph glyph-name="bracketright" unicode="]" horiz-adv-x="333" 
d="M-14 -120h67c36 1 37 1 51 60l153 669v2c0 13 -13 21 -35 21h-77l7 35h217l-193 -822h-197z" />
    <glyph glyph-name="asciicircum" unicode="^" horiz-adv-x="570" 
d="M186 304h-89l176 365h80l180 -365h-89l-131 272z" />
    <glyph glyph-name="underscore" unicode="_" 
d="M495 -134h-490v67h490v-67z" />
    <glyph glyph-name="grave" unicode="`" horiz-adv-x="333" 
d="M339 511h-44l-132 88c-22 15 -34 31 -34 47c0 24 21 44 44 44c19 0 40 -12 56 -33z" />
    <glyph glyph-name="a" unicode="a" 
d="M463 126l21 -15c-56 -86 -102 -125 -149 -125c-37 0 -66 29 -66 66c0 14 3 27 13 66c-56 -95 -100 -131 -162 -131c-64 0 -107 51 -107 126c0 155 147 344 268 344c43 0 65 -21 74 -71l17 58l110 7l-69 -233c-22 -77 -32 -121 -32 -147c0 -10 4 -15 12 -15
c15 0 30 15 70 70zM295 415c-26 2 -59 -29 -88 -81c-41 -73 -72 -171 -72 -223c0 -31 19 -54 44 -54c28 0 57 26 83 74c38 68 70 178 70 237c0 27 -15 45 -37 47z" />
    <glyph glyph-name="b" unicode="b" 
d="M106 635v27c88 10 136 17 205 30l-87 -325c51 67 85 90 137 90c65 0 111 -51 111 -123c0 -178 -154 -347 -315 -347c-65 0 -137 31 -137 60c0 5 10 45 19 79l91 325c25 88 38 141 38 155c0 20 -15 30 -45 30c-2 0 -11 0 -17 -1zM305 390c-33 0 -64 -30 -90 -86
c-16 -36 -35 -91 -47 -136c-10 -37 -26 -110 -26 -121c0 -16 13 -27 31 -27c43 0 82 30 115 90c35 61 61 152 61 211c0 45 -15 69 -44 69z" />
    <glyph glyph-name="c" unicode="c" horiz-adv-x="444" 
d="M349 140l27 -18c-34 -50 -50 -69 -76 -91c-32 -28 -75 -44 -119 -44c-90 0 -152 62 -152 151c0 158 141 319 280 319c67 0 112 -36 112 -90c0 -40 -25 -68 -61 -68c-34 0 -58 22 -58 52c0 11 4 23 13 37c6 10 8 15 8 19c0 10 -10 17 -22 17c-30 0 -58 -24 -85 -70
c-35 -64 -60 -152 -60 -215c0 -53 29 -89 73 -89c42 0 73 23 120 90z" />
    <glyph glyph-name="d" unicode="d" 
d="M456 130l22 -16c-54 -87 -98 -125 -147 -125c-37 0 -59 23 -59 62c0 14 2 29 10 66c-56 -94 -100 -130 -163 -130c-61 0 -106 52 -106 124c0 157 146 346 267 346c29 0 47 -8 72 -32l17 67c23 85 28 107 28 116c0 18 -14 28 -41 28h-20l-1 27c99 8 148 15 207 29
l-107 -401c-34 -125 -55 -210 -55 -221c0 -6 5 -12 11 -12c14 0 39 27 65 72zM300 415c-29 2 -65 -30 -96 -86c-35 -64 -65 -154 -68 -208c-2 -35 16 -63 41 -63c29 0 57 25 84 73c34 63 76 191 76 235c0 28 -15 48 -37 49z" />
    <glyph glyph-name="e" unicode="e" horiz-adv-x="444" 
d="M347 141l29 -17c-59 -99 -112 -137 -187 -137c-87 0 -151 62 -151 147c0 163 141 323 284 323c60 0 104 -36 104 -87c0 -34 -19 -71 -53 -103c-48 -45 -97 -66 -201 -87c-4 -19 -5 -30 -5 -47c0 -55 22 -83 64 -83s70 22 116 91zM179 212c57 18 81 32 108 60
c31 32 48 74 48 118c0 23 -9 34 -28 34c-48 0 -93 -75 -128 -212z" />
    <glyph glyph-name="f" unicode="f" horiz-adv-x="333" 
d="M356 444l-9 -42h-89c-52 -252 -62 -295 -86 -372c-32 -102 -59 -155 -98 -191c-30 -28 -66 -42 -109 -42c-59 0 -98 31 -98 79c0 28 24 53 51 53c25 0 49 -24 49 -48c0 -11 -4 -22 -12 -33c-3 -4 -4 -7 -4 -9c0 -6 8 -11 18 -11c39 0 59 42 88 187c7 33 36 165 85 387
h-72l9 42h72c27 100 47 141 88 187c35 39 83 60 135 60c60 0 98 -31 98 -79c0 -31 -21 -53 -50 -53c-28 0 -49 21 -49 49c0 10 3 18 11 30c4 6 5 8 5 11c0 8 -7 13 -17 13c-35 0 -65 -49 -90 -148l-17 -70h91z" />
    <glyph glyph-name="g" unicode="g" 
d="M506 425v-55h-66c4 -16 6 -27 6 -43c0 -98 -94 -175 -213 -175c-12 0 -19 1 -31 4c-8 3 -15 4 -20 4c-12 0 -27 -19 -27 -36c0 -15 19 -29 51 -38l52 -15c108 -30 148 -64 148 -124c0 -87 -97 -148 -235 -148c-115 0 -187 41 -187 105c0 24 10 48 27 61
c23 19 43 27 104 42c-44 15 -62 34 -62 66c0 36 14 50 95 96c-54 22 -80 58 -80 109c0 100 97 179 218 179c46 0 76 -9 110 -32h110zM148 -6c-7 1 -37 -17 -49 -28c-20 -20 -29 -36 -29 -55c0 -46 45 -78 111 -78c74 0 117 25 117 68c0 25 -13 43 -41 56
c-20 10 -97 36 -109 37zM285 427c-26 0 -47 -16 -65 -48c-21 -37 -37 -96 -37 -137c0 -38 15 -59 42 -59c31 0 55 22 77 67c16 36 28 84 28 119c0 34 -19 58 -45 58z" />
    <glyph glyph-name="h" unicode="h" horiz-adv-x="556" 
d="M505 141l22 -15c-65 -103 -104 -135 -165 -135c-38 0 -65 24 -65 58c0 41 10 80 59 228c0 0 4 11 11 33c4 12 9 28 11 33c2 8 4 16 4 22c0 11 -10 21 -22 21c-26 0 -58 -29 -99 -88c-49 -72 -69 -121 -119 -298h-120l149 561c6 22 8 33 8 41c0 23 -13 34 -41 34
c-6 0 -14 0 -22 -1v27c81 8 130 15 206 30l-104 -412c55 79 79 109 110 135c35 30 64 42 99 42c47 0 76 -28 76 -74c0 -19 -10 -59 -30 -121l-56 -176c-1 -3 -2 -10 -2 -12c0 -7 9 -16 17 -16c12 0 32 22 73 83z" />
    <glyph glyph-name="i" unicode="i" horiz-adv-x="278" 
d="M246 140l22 -14c-68 -105 -105 -135 -164 -135c-41 0 -69 25 -69 62c0 14 5 41 12 69l56 212c5 18 8 33 8 40c0 19 -16 29 -46 29h-13v27c78 6 146 15 200 27l-89 -331c-3 -14 -8 -42 -8 -51c0 -8 7 -15 15 -15c15 0 37 21 63 60zM222 677c38 0 69 -31 69 -68
c0 -36 -30 -65 -68 -65c-37 0 -66 30 -66 68c0 35 30 65 65 65z" />
    <glyph glyph-name="j" unicode="j" horiz-adv-x="278" 
d="M62 403v27c110 9 146 14 205 27l-110 -433c-39 -153 -107 -229 -206 -229c-62 0 -104 31 -104 77c0 28 22 52 48 52c27 0 49 -22 49 -49c0 -10 -2 -15 -10 -27c-4 -6 -5 -8 -5 -10c0 -5 13 -12 23 -12c29 0 46 31 71 129l89 352c7 28 11 52 11 65c0 22 -12 31 -41 31h-20
zM237 677c38 0 69 -31 69 -68c0 -36 -30 -65 -68 -65c-37 0 -66 30 -66 68c0 35 30 65 65 65z" />
    <glyph glyph-name="k" unicode="k" 
d="M181 186l-48 -186h-121l151 561c6 21 8 32 8 41c0 23 -13 34 -41 34c-4 0 -14 0 -22 -1v27c77 8 129 15 206 29l-119 -454c123 97 161 134 161 159c0 16 -12 22 -50 23l-1 25h205v-25c-45 -5 -65 -17 -133 -75l-62 -54c39 -192 51 -228 79 -228c19 0 34 16 61 64l21 -11
c-48 -91 -84 -123 -133 -123c-62 0 -91 53 -123 221z" />
    <glyph glyph-name="l" unicode="l" horiz-adv-x="278" 
d="M246 140l22 -14c-68 -105 -105 -135 -166 -135c-40 0 -67 24 -67 59c0 24 12 81 33 157l72 261c22 78 33 126 33 140c0 18 -15 28 -42 28c-5 0 -10 0 -21 -1v27c74 7 122 13 207 30l-141 -518c-13 -49 -21 -85 -21 -99c0 -8 7 -15 15 -15c17 0 37 21 76 80z" />
    <glyph glyph-name="m" unicode="m" horiz-adv-x="778" 
d="M67 403v27c111 9 134 12 198 26l-62 -196c63 97 93 136 129 164c28 22 57 33 85 33c42 0 67 -26 67 -68c0 -28 -6 -52 -25 -102c81 130 128 170 195 170c43 0 76 -30 76 -71c0 -27 -7 -63 -21 -105l-44 -131c-17 -50 -21 -66 -21 -78c0 -7 7 -14 16 -14c10 0 21 9 40 33
c1 2 10 16 28 43l22 -13c-57 -97 -97 -130 -158 -130c-43 0 -67 22 -67 62c0 30 13 86 35 152l44 129c4 12 6 22 6 30c0 11 -11 21 -23 21c-29 0 -69 -41 -110 -115c-35 -62 -42 -84 -98 -270h-118c33 111 44 146 63 205c31 99 43 142 43 158c0 12 -9 22 -18 22
c-14 0 -42 -20 -64 -46c-55 -65 -91 -151 -143 -339h-120l65 235c27 100 34 128 34 142c0 18 -17 27 -46 26h-8z" />
    <glyph glyph-name="n" unicode="n" horiz-adv-x="556" 
d="M500 134l22 -13c-57 -97 -97 -130 -156 -130c-43 0 -68 22 -68 60c0 26 12 81 27 129l53 164c3 10 5 17 5 21c0 11 -12 21 -25 21c-18 0 -48 -22 -68 -48c-61 -84 -96 -168 -141 -338h-120c27 101 36 135 55 202c30 108 44 163 44 176c0 19 -12 24 -54 25v27
c56 2 134 12 198 26l-62 -196c66 98 84 122 120 157c27 25 63 40 99 40c47 0 73 -26 73 -74c0 -25 -9 -66 -25 -114l-35 -107c-16 -48 -24 -77 -24 -87s6 -17 14 -17c16 0 28 13 68 76z" />
    <glyph glyph-name="o" unicode="o" 
d="M313 457c91 0 156 -63 156 -150c0 -168 -133 -320 -280 -320c-91 0 -158 63 -158 148c0 166 137 322 282 322zM304 428c-31 0 -60 -22 -85 -68c-35 -61 -70 -204 -70 -282c0 -39 19 -62 49 -62c35 0 64 28 92 90c32 70 61 196 61 264c0 36 -18 58 -47 58z" />
    <glyph glyph-name="p" unicode="p" 
d="M55 403v27c51 5 90 11 191 27l-37 -114c57 82 101 114 157 114c66 0 108 -47 108 -121c0 -172 -138 -349 -272 -349c-21 0 -32 4 -67 22l-4 -13c0 -2 -5 -22 -7 -28c-19 -74 -25 -99 -25 -112c0 -24 16 -32 64 -32l1 -27h-247v27c47 -1 56 7 73 73l98 384
c13 52 21 88 21 97c0 19 -9 23 -54 25zM311 387c-25 2 -58 -22 -83 -61c-15 -24 -25 -52 -49 -133c-25 -87 -33 -120 -33 -136c0 -19 17 -35 39 -35c33 0 65 27 95 81c35 64 66 163 70 227c2 32 -13 55 -39 57z" />
    <glyph glyph-name="q" unicode="q" 
d="M403 -176v-27h-264v27c61 3 72 10 88 62l61 211c-50 -81 -90 -110 -149 -110c-65 0 -104 49 -104 130c0 155 147 340 270 340c44 0 62 -18 71 -72l14 59h108c-40 -154 -60 -225 -82 -300c-42 -138 -78 -274 -78 -293s15 -27 51 -27h14zM319 414c-28 2 -62 -29 -93 -84
c-40 -71 -67 -159 -67 -215c0 -38 13 -57 39 -57c31 0 58 24 86 73c34 61 70 182 70 235c0 28 -13 47 -35 48z" />
    <glyph glyph-name="r" unicode="r" horiz-adv-x="389" 
d="M58 403v27c120 10 139 12 198 27l-64 -206c77 156 118 206 168 206c34 0 57 -26 57 -66s-25 -71 -57 -71c-17 0 -30 8 -44 25c-7 8 -13 12 -17 12c-17 0 -51 -46 -80 -106c-17 -36 -23 -52 -41 -107c-4 -14 -9 -28 -13 -41c-7 -23 -18 -58 -32 -103h-120
c71 244 99 352 99 378c0 19 -9 23 -54 25z" />
    <glyph glyph-name="s" unicode="s" horiz-adv-x="389" 
d="M361 456l-22 -151l-27 2c-15 81 -43 117 -88 117c-32 0 -52 -20 -52 -52c0 -23 17 -53 56 -97c56 -64 81 -113 81 -158c0 -74 -62 -130 -145 -130c-21 0 -39 4 -63 12c-13 5 -24 8 -31 8c-13 0 -24 -8 -28 -20h-27l21 164l27 -3c8 -53 16 -75 35 -100
c16 -20 38 -31 60 -31c31 0 56 24 56 53c0 25 -18 59 -56 103c-65 77 -80 107 -80 161c0 74 52 123 132 123c20 0 33 -3 58 -13c17 -7 25 -9 36 -9c14 0 17 2 28 21h29z" />
    <glyph glyph-name="t" unicode="t" horiz-adv-x="278" 
d="M309 444v-42h-82c-23 -84 -25 -92 -32 -117c-36 -127 -52 -192 -52 -210c0 -8 7 -15 16 -15c16 0 41 27 74 79l22 -14c-65 -102 -104 -134 -163 -134c-42 0 -70 26 -70 65c0 17 9 61 23 111l66 235h-50l-1 35c79 30 128 71 181 151h34l-37 -144h71z" />
    <glyph glyph-name="u" unicode="u" horiz-adv-x="556" 
d="M500 131l21 -12c-51 -89 -100 -128 -159 -128c-43 0 -64 19 -64 60c0 29 5 54 23 108c-101 -142 -131 -168 -197 -168c-50 0 -75 25 -75 74c0 24 7 58 21 106l38 131c9 29 14 58 14 73c0 20 -9 24 -56 27v27c51 3 106 10 179 24c15 3 22 4 28 4l-92 -305
c-12 -42 -14 -50 -14 -65c0 -17 7 -25 21 -25c19 0 42 17 72 55c57 72 85 138 138 327h117l-76 -265c-11 -39 -23 -92 -23 -104c0 -10 6 -17 14 -17c17 0 36 20 70 73z" />
    <glyph glyph-name="v" unicode="v" horiz-adv-x="444" 
d="M48 403v27c83 11 103 15 153 27c22 -79 28 -136 33 -330c97 112 123 151 123 185c0 11 -5 21 -19 37c-18 20 -24 33 -24 51c0 30 26 57 54 57c32 0 61 -32 61 -67c0 -42 -21 -95 -59 -151c-54 -80 -101 -132 -225 -252h-26l3 135c1 112 -6 199 -22 250
c-9 27 -16 31 -52 31z" />
    <glyph glyph-name="w" unicode="w" horiz-adv-x="667" 
d="M49 403v27c82 13 113 19 153 27c23 -85 31 -149 35 -272c54 100 70 128 152 272h27l34 -328c86 101 116 148 116 179c0 10 -6 23 -20 41c-15 21 -21 34 -21 49c0 32 25 59 55 59c33 0 61 -29 61 -62c0 -83 -86 -214 -267 -408h-27l-24 283l-18 -35
c-50 -89 -85 -152 -93 -163l-56 -85h-26v44l1 34v6l-2 77c-4 139 -18 229 -38 247c-8 6 -17 8 -42 8z" />
    <glyph glyph-name="x" unicode="x" 
d="M430 122l21 -14c-60 -88 -101 -121 -149 -121c-20 0 -40 10 -52 26c-21 27 -30 53 -45 128l-23 -39c-57 -95 -80 -115 -129 -115c-38 0 -64 24 -64 59c0 31 23 55 54 55c13 0 24 -4 40 -13c10 -6 15 -8 21 -8c17 0 27 8 47 41l43 69l-31 152c-9 50 -24 67 -55 67
c-8 0 -16 0 -35 -2v26l165 24c20 -29 27 -51 45 -136c79 110 109 136 156 136c31 0 58 -29 58 -61c0 -28 -25 -52 -55 -52c-11 0 -18 2 -32 11c-11 6 -18 9 -25 9c-22 0 -49 -26 -82 -81c-5 -7 -6 -9 -8 -13l32 -154c8 -39 18 -53 37 -53c18 0 28 9 66 59z" />
    <glyph glyph-name="y" unicode="y" horiz-adv-x="444" 
d="M46 407v26c64 6 100 12 147 24c17 -45 45 -157 67 -274l13 -74c67 132 84 172 84 202c0 14 -5 22 -24 35c-24 18 -31 30 -31 55c0 29 26 56 55 56c34 0 63 -29 63 -64c0 -100 -116 -334 -244 -492c-53 -65 -118 -104 -173 -104c-34 0 -61 26 -61 60c0 28 23 54 49 54
c16 0 44 -9 57 -19c11 -9 28 -16 36 -16c37 0 91 71 91 119c0 31 -18 132 -51 286c-15 71 -32 111 -49 121c-6 4 -12 5 -29 5z" />
    <glyph glyph-name="z" unicode="z" horiz-adv-x="389" 
d="M45 292l41 152h309v-10l-276 -331c51 -22 74 -45 106 -105c17 -34 29 -46 48 -46c12 0 21 7 21 15c0 4 -2 8 -8 15c-9 12 -12 20 -12 31c0 28 22 51 49 51c28 0 53 -24 53 -52c0 -50 -46 -89 -107 -89c-40 0 -77 14 -129 50c-35 24 -54 32 -74 32c-9 0 -13 -2 -24 -9
c0 0 -5 -3 -15 -11c-4 -2 -7 -5 -11 -8l-25 22l287 350h-144c-30 -1 -46 -17 -61 -60z" />
    <glyph glyph-name="braceleft" unicode="{" horiz-adv-x="348" 
d="M461 679l-3 -12c-80 -15 -116 -48 -136 -123l-43 -169c-23 -84 -52 -109 -149 -128c74 -20 91 -35 91 -76c0 -23 -10 -69 -27 -128c-18 -63 -29 -113 -29 -138c0 -46 22 -68 80 -78l-3 -12c-91 2 -130 10 -155 31c-17 14 -25 34 -25 61s16 102 33 155c16 48 25 91 25 114
c0 35 -22 54 -83 70c88 20 116 44 135 115l44 177c31 108 87 141 245 141z" />
    <glyph glyph-name="bar" unicode="|" horiz-adv-x="220" 
d="M97 -155v832h86v-832h-86z" />
    <glyph glyph-name="braceright" unicode="}" horiz-adv-x="348" 
d="M-93 -185l3 12c81 15 117 47 136 123l43 169c23 84 52 109 149 128c-74 20 -91 34 -91 77c0 22 9 63 27 127c20 69 30 114 30 139c0 44 -24 67 -81 77l3 12c92 -2 131 -10 156 -31c16 -14 25 -34 25 -57c0 -30 -16 -104 -34 -159c-16 -49 -25 -91 -25 -115
c0 -35 22 -53 83 -70c-88 -19 -115 -42 -135 -114l-44 -178c-31 -107 -88 -140 -245 -140z" />
    <glyph glyph-name="asciitilde" unicode="~" horiz-adv-x="570" 
d="M491 308l56 -48c-46 -64 -76 -85 -122 -85c-34 0 -59 8 -106 33c-47 26 -77 35 -112 35c-29 0 -45 -10 -69 -42l-53 46c33 59 70 84 121 84c36 0 58 -7 136 -41c50 -22 64 -27 82 -27c24 0 42 13 67 45z" />
    <glyph glyph-name="uni00A0" unicode="&#xa0;" horiz-adv-x="250" 
 />
    <glyph glyph-name="exclamdown" unicode="&#xa1;" horiz-adv-x="389" 
d="M224 272l29 -8c-29 -149 -47 -280 -50 -350c-2 -40 -5 -54 -13 -71c-13 -30 -37 -46 -67 -46c-42 0 -69 29 -69 73c0 27 5 42 30 88c53 103 100 210 140 314zM278 487c41 0 72 -30 72 -70c0 -41 -32 -73 -72 -73c-39 0 -74 35 -74 74s33 69 74 69z" />
    <glyph glyph-name="cent" unicode="&#xa2;" 
d="M458 570l-44 -126c36 -19 53 -44 53 -78c0 -38 -27 -67 -64 -67c-14 0 -25 3 -35 11l-90 -259c41 2 77 29 117 88l26 -18c-61 -89 -98 -119 -164 -131l-46 -132h-33l44 129c-94 6 -147 60 -147 151c0 159 140 319 280 319c8 0 15 -1 28 -3l40 116h35zM246 56l121 353l1 1
c1 8 -9 14 -22 14c-30 0 -58 -23 -85 -72c-35 -63 -60 -149 -60 -205c0 -18 4 -40 11 -56s14 -24 34 -35z" />
    <glyph glyph-name="sterling" unicode="&#xa3;" 
d="M422 366l-10 -59h-113c-13 -59 -38 -126 -63 -167l-11 -17c60 -24 92 -32 124 -32c48 0 67 13 89 63h25c-12 -57 -23 -84 -43 -112c-25 -34 -64 -54 -106 -54s-74 16 -126 60c-27 -43 -54 -59 -97 -59c-52 0 -89 35 -89 85c0 51 38 86 95 86c20 0 34 -3 60 -13
c7 64 8 77 18 160h-108l10 59h103c25 123 48 180 96 235c42 49 95 75 151 75c63 0 109 -38 109 -90c0 -38 -26 -67 -60 -67c-30 0 -53 22 -53 50c0 10 1 22 4 34c2 7 3 14 3 18c0 12 -10 21 -24 21c-29 0 -50 -27 -59 -76l-38 -200h113zM145 89c-24 21 -41 29 -63 29
c-30 0 -50 -19 -50 -49c0 -29 23 -50 55 -50c30 0 48 21 58 70z" />
    <glyph glyph-name="currency" unicode="&#xa4;" 
d="M-2 91l97 97c-27 39 -37 73 -37 120c0 46 10 81 36 120l-98 97l57 55l96 -95c39 25 75 35 121 35c45 0 80 -10 120 -35l95 95l57 -55l-96 -97c27 -44 37 -77 37 -122c0 -47 -11 -82 -36 -118l98 -97l-57 -57l-96 97c-41 -26 -77 -37 -121 -37c-43 0 -80 11 -120 37
l-95 -97zM270 439c-70 0 -125 -58 -125 -131c0 -74 56 -133 126 -133c68 0 125 59 125 129c0 75 -56 135 -126 135z" />
    <glyph glyph-name="yen" unicode="&#xa5;" 
d="M531 338l-12 -49h-149l-20 -78h150l-13 -49h-151l-3 -11c-11 -43 -15 -64 -15 -84c0 -32 14 -39 80 -42v-25h-318v25c76 5 90 14 107 71l19 66h-140l14 49h139l22 78h-141l13 49h124l-79 237c-20 50 -27 56 -82 62v25h277v-25c-56 -1 -74 -9 -74 -32c0 -7 2 -19 6 -31
l81 -234l132 192c20 29 26 42 26 58c0 36 -14 46 -70 47v25h198v-25c-39 -8 -59 -22 -91 -68l-163 -231h133z" />
    <glyph glyph-name="brokenbar" unicode="&#xa6;" horiz-adv-x="220" 
d="M67 -150v372h86v-372h-86zM67 314v332h86v-332h-86z" />
    <glyph glyph-name="section" unicode="&#xa7;" 
d="M318 124l-2 -4c44 -53 60 -88 60 -129c0 -75 -71 -133 -162 -133c-81 0 -144 46 -144 104c0 35 24 60 57 60s56 -21 56 -50c0 -20 -6 -31 -22 -45c-10 -7 -13 -12 -13 -18c0 -14 33 -28 67 -28c50 0 85 31 85 75c0 32 -12 52 -83 138l-66 79c-35 42 -51 81 -51 124
c0 69 45 124 102 124c14 0 36 -3 48 -6l2 3c-35 38 -55 84 -55 128c0 78 62 132 152 132c79 0 136 -41 136 -97c0 -35 -24 -60 -57 -60c-30 0 -55 24 -55 53c0 15 6 25 22 37c10 7 14 13 14 18c0 14 -28 27 -58 27c-50 0 -85 -30 -85 -72c0 -31 17 -62 68 -122l69 -80
c39 -45 60 -96 60 -142c0 -66 -52 -120 -115 -120c-10 0 -18 1 -30 4zM225 396c-31 0 -55 -25 -55 -57c0 -21 12 -51 29 -75c25 -33 52 -65 74 -86c24 -23 40 -31 62 -31c31 0 58 26 58 57c0 66 -111 192 -168 192z" />
    <glyph glyph-name="dieresis" unicode="&#xa8;" horiz-adv-x="333" 
d="M149 649c36 0 66 -30 66 -66c0 -34 -30 -63 -66 -63c-33 0 -63 30 -63 64c0 36 28 65 63 65zM359 649c36 0 66 -30 66 -66c0 -34 -30 -63 -66 -63c-33 0 -63 30 -63 64c0 36 28 65 63 65z" />
    <glyph glyph-name="copyright" unicode="&#xa9;" horiz-adv-x="747" 
d="M403 678c190 0 342 -155 342 -349c0 -198 -147 -347 -343 -347c-186 0 -338 156 -338 349c0 194 149 347 339 347zM403 632c-154 0 -279 -135 -279 -301c0 -164 128 -303 279 -303c157 0 282 133 282 300c0 166 -128 304 -282 304zM559 523v-123h-18
c-14 63 -58 101 -117 101c-79 0 -123 -61 -123 -170c0 -114 43 -176 123 -176c47 0 83 19 123 65v-33c-43 -42 -87 -60 -152 -60c-120 0 -201 78 -201 193c0 117 87 204 206 204c32 0 58 -5 100 -20c9 -4 15 -5 19 -5c12 0 19 8 21 24h19z" />
    <glyph glyph-name="ordfeminine" unicode="&#xaa;" horiz-adv-x="266" 
d="M341 479l13 -9c-38 -53 -66 -75 -97 -75c-23 0 -43 18 -43 38c0 11 2 18 11 50c-36 -64 -64 -87 -108 -87c-42 0 -70 31 -70 76c0 95 96 206 177 206c26 0 40 -13 47 -44l10 35l76 4l-45 -139c-18 -55 -22 -71 -22 -88c0 -5 2 -8 5 -8c8 0 21 12 43 38zM226 651
c-34 4 -102 -117 -102 -183c0 -15 11 -28 24 -28c19 0 41 21 60 57c20 37 38 96 38 126c0 15 -8 27 -20 28z" />
    <glyph glyph-name="guillemotleft" unicode="&#xab;" 
d="M169 218l40 -82c23 -49 33 -74 33 -89c0 -9 -6 -15 -14 -15c-6 0 -9 2 -15 10c-41 44 -57 61 -168 173v9l167 122c23 17 34 26 46 38c19 18 33 27 41 27c7 0 13 -5 13 -12c0 -21 -30 -61 -99 -133c-16 -17 -26 -27 -44 -48zM352 218l40 -82c23 -47 33 -75 33 -89
c0 -9 -6 -15 -14 -15c-6 0 -9 2 -15 10c-23 26 -92 97 -168 173v9l167 122c24 17 33 25 46 38c19 18 33 27 41 27c7 0 13 -6 13 -12c0 -21 -29 -60 -99 -133c-15 -16 -25 -27 -44 -48z" />
    <glyph glyph-name="logicalnot" unicode="&#xac;" horiz-adv-x="606" 
d="M31 383h504v-270h-66v206h-438v64z" />
    <glyph glyph-name="uni00AD" unicode="&#xad;" horiz-adv-x="333" 
d="M301 279l-23 -115h-243l23 115h243z" />
    <glyph glyph-name="registered" unicode="&#xae;" horiz-adv-x="747" 
d="M241 506v16h181c71 0 116 -37 116 -94c0 -48 -26 -83 -79 -103l59 -82c30 -41 53 -67 73 -83l1 -11h-70c-18 0 -32 17 -68 80c-17 30 -28 49 -51 85h-44l1 -101c0 -31 1 -36 8 -40s11 -5 39 -8v-16h-164v16c30 3 32 4 39 8c6 3 7 9 7 40l-1 246c-1 30 -2 36 -8 39
c-7 4 -7 4 -39 8zM358 501l1 -167h40c43 0 67 32 67 89c0 52 -23 78 -68 78h-40zM403 678c190 0 342 -155 342 -349c0 -198 -147 -347 -343 -347c-186 0 -338 156 -338 349c0 194 149 347 339 347zM403 632c-154 0 -279 -135 -279 -301c0 -164 128 -303 279 -303
c157 0 282 133 282 300c0 166 -128 304 -282 304z" />
    <glyph glyph-name="macron" unicode="&#xaf;" horiz-adv-x="333" 
d="M103 594h300l1 -87h-300z" />
    <glyph glyph-name="degree" unicode="&#xb0;" horiz-adv-x="400" 
d="M254 676c79 0 142 -63 142 -142c0 -80 -61 -141 -142 -141c-78 0 -141 63 -141 142s62 141 141 141zM254 640c-55 0 -100 -47 -100 -105c0 -57 46 -106 100 -106c56 0 101 47 101 105c0 57 -46 106 -101 106z" />
    <glyph glyph-name="plusminus" unicode="&#xb1;" horiz-adv-x="570" 
d="M271 409l-1 206h87l1 -206h206v-87h-206l1 -142h-87l-1 142h-206v87h206zM67 53l-1 87h499l1 -87h-499z" />
    <glyph glyph-name="twosuperior" unicode="&#xb2;" horiz-adv-x="300" 
d="M319 384l-49 -113h-236v16c94 89 116 111 145 143c50 56 69 89 69 120c0 41 -22 66 -58 66c-30 0 -51 -12 -81 -48l-18 11c36 66 81 97 141 97c61 0 108 -43 108 -99c0 -47 -25 -85 -90 -138l-124 -100h89c51 1 65 8 89 45h15z" />
    <glyph glyph-name="threesuperior" unicode="&#xb3;" horiz-adv-x="300" 
d="M140 476l2 14c80 15 119 42 119 84c0 32 -21 52 -54 52c-29 0 -46 -10 -74 -42l-14 13c39 55 78 79 130 79c57 0 99 -35 99 -81c0 -36 -13 -52 -71 -85l-6 -4c38 -27 52 -49 52 -88c0 -86 -85 -156 -189 -156c-54 0 -85 18 -85 50c0 23 15 40 36 40c16 0 30 -9 44 -27
c20 -28 23 -30 42 -30c39 0 69 39 69 90c0 58 -33 88 -100 91z" />
    <glyph glyph-name="acute" unicode="&#xb4;" horiz-adv-x="333" 
d="M233 511h-48l120 130c34 37 52 49 69 49c26 0 48 -21 48 -46c0 -19 -9 -30 -38 -47z" />
    <glyph glyph-name="mu" unicode="&#xb5;" horiz-adv-x="576" 
d="M543 444l-101 -332c-3 -10 -5 -20 -5 -27c0 -8 5 -14 12 -14c15 0 36 21 62 61l21 -15c-74 -103 -109 -130 -165 -130c-36 0 -62 26 -62 63c0 18 2 30 10 66c-52 -88 -82 -116 -128 -116c-24 0 -36 5 -61 24c-14 -43 -22 -88 -22 -131c-1 -28 -2 -36 -7 -49
c-13 -30 -40 -49 -71 -49c-32 0 -50 22 -50 60c0 29 6 52 30 109c19 45 25 60 42 109l108 371h133l-90 -309c-4 -14 -7 -31 -7 -41c0 -16 7 -25 19 -25c42 0 116 106 149 213l49 162h134z" />
    <glyph glyph-name="paragraph" unicode="&#xb6;" 
d="M231 284l-2 354c-46 -12 -65 -24 -83 -52c-15 -25 -23 -63 -23 -111c0 -104 34 -164 108 -191zM321 638l5 -820h-92l-3 442c-50 2 -75 8 -105 26c-60 35 -91 99 -91 187c0 131 66 189 213 189h294v-24c-11 -1 -21 -2 -24 -2c-52 -6 -54 -9 -55 -59v-14v-23l4 -722h-92
l-5 820h-49z" />
    <glyph glyph-name="periodcentered" unicode="&#xb7;" horiz-adv-x="250" 
d="M155 400c40 0 73 -33 73 -74c0 -40 -32 -72 -73 -72c-42 0 -73 31 -73 74c0 41 32 72 73 72z" />
    <glyph glyph-name="cedilla" unicode="&#xb8;" horiz-adv-x="333" 
d="M17 -91l65 96h43l-44 -66c10 2 17 3 26 3c52 0 89 -30 89 -72c0 -49 -52 -86 -122 -86c-36 0 -68 7 -111 25l22 33c28 -13 44 -17 66 -17c34 0 55 16 55 40c0 23 -17 36 -46 36c-11 0 -19 -1 -30 -4z" />
    <glyph glyph-name="onesuperior" unicode="&#xb9;" horiz-adv-x="300" 
d="M62 271v19c56 0 70 14 86 79c1 3 7 22 14 41c22 67 59 191 58 197c-4 13 -12 20 -26 20c-1 0 -15 -1 -43 -2l2 20c70 11 112 18 175 31l-97 -327c-4 -12 -6 -25 -6 -34c0 -21 9 -25 59 -25v-19h-222z" />
    <glyph glyph-name="ordmasculine" unicode="&#xba;" horiz-adv-x="300" 
d="M270 678c63 0 106 -41 103 -98c-5 -97 -91 -184 -182 -184c-61 0 -105 37 -105 88c0 100 89 194 184 194zM268 658c-20 1 -42 -16 -59 -47c-23 -40 -43 -115 -43 -160c0 -22 11 -35 28 -35c23 0 43 19 63 62c19 41 34 99 36 142c1 23 -8 37 -25 38z" />
    <glyph glyph-name="guillemotright" unicode="&#xbb;" 
d="M373 225l-40 82c-25 49 -34 74 -34 89c0 8 6 15 14 15c6 0 9 -2 15 -10c45 -49 72 -76 168 -173v-9l-167 -123c-25 -18 -33 -25 -46 -37c-19 -18 -33 -27 -41 -27c-7 0 -13 5 -13 12c0 20 29 59 99 132c15 16 25 27 45 49zM189 225l-40 82c-24 50 -33 74 -33 89
c0 8 6 15 14 15c6 0 9 -2 15 -10c45 -48 71 -75 168 -173v-9l-167 -123c-24 -18 -34 -25 -46 -37c-19 -18 -33 -27 -41 -27c-7 0 -13 5 -13 12c0 20 30 61 99 132c16 17 26 28 44 49z" />
    <glyph glyph-name="onequarter" unicode="&#xbc;" horiz-adv-x="750" 
d="M716 147l-17 -60h-43l-28 -87h-85l26 87h-157l16 66l273 253h46l-76 -259h45zM455 147h131l51 169zM25 271v19c56 0 71 14 87 78c1 6 7 23 13 42c27 82 58 186 58 196c0 11 -12 21 -26 21c0 0 -15 -1 -43 -2l2 20c70 11 112 18 175 31l-97 -327c-4 -12 -6 -25 -6 -34
c0 -21 9 -25 59 -25v-19h-222zM639 676l-426 -690h-58l427 690h57z" />
    <glyph glyph-name="onehalf" unicode="&#xbd;" horiz-adv-x="750" 
d="M639 676l-426 -690h-58l427 690h57zM729 113l-50 -113h-236v16c100 95 117 111 145 143c50 57 69 89 69 120c0 41 -22 66 -58 66c-30 0 -49 -12 -81 -48l-18 11c36 66 81 97 141 97c61 0 108 -43 108 -99c0 -47 -25 -85 -90 -138l-124 -100h89c51 1 66 8 89 45h16z
M25 271v19c56 0 71 14 87 78c1 6 7 23 13 42c27 82 58 186 58 196c0 11 -12 21 -26 21c0 0 -15 -1 -43 -2l2 20c70 11 112 18 175 31l-97 -327c-4 -12 -6 -25 -6 -34c0 -21 9 -25 59 -25v-19h-222z" />
    <glyph glyph-name="threequarters" unicode="&#xbe;" horiz-adv-x="750" 
d="M710 147l-17 -60h-44l-27 -87h-85l26 87h-157l16 66l273 253h46l-76 -259h45zM449 147h131l51 169zM131 478l2 14c80 15 118 41 118 83c0 31 -21 51 -54 51c-28 0 -46 -10 -73 -41l-14 13c39 55 77 78 129 78c56 0 98 -34 98 -80c0 -36 -14 -53 -70 -84l-7 -4
c39 -26 52 -49 52 -88c0 -84 -84 -153 -187 -153c-53 0 -84 18 -84 49c0 23 15 40 36 40c16 0 29 -9 43 -27c20 -28 23 -30 41 -30c39 0 69 39 69 89c0 58 -32 87 -99 90zM640 676l-427 -690h-57l426 690h58z" />
    <glyph glyph-name="questiondown" unicode="&#xbf;" 
d="M334 268l29 -7c-4 -54 -24 -99 -69 -157l-41 -51c-43 -54 -62 -98 -62 -146c0 -49 26 -79 69 -79c32 0 61 18 61 38c0 5 -3 11 -11 22c-13 17 -18 29 -18 44c0 33 26 59 59 59c35 0 61 -29 61 -67c0 -74 -72 -127 -172 -127c-105 0 -175 57 -175 144c0 62 36 110 124 168
l65 42c37 25 53 48 80 117zM377 486c40 0 73 -33 73 -74s-32 -72 -74 -72s-73 31 -73 74c0 41 32 72 74 72z" />
    <glyph glyph-name="Agrave" unicode="&#xc0;" horiz-adv-x="667" 
d="M622 25v-25h-301v25c64 5 78 16 78 58c0 8 -5 49 -15 123h-213l-58 -101c-11 -18 -15 -32 -15 -45c0 -25 19 -35 65 -35v-25h-194v25c35 8 50 20 82 69l365 582h24l99 -566c13 -76 17 -80 83 -85zM193 246h184l-38 240zM496 716h-45l-132 88c-22 15 -34 31 -34 47
c0 23 21 44 44 44c19 0 40 -12 56 -33z" />
    <glyph glyph-name="Aacute" unicode="&#xc1;" horiz-adv-x="667" 
d="M622 25v-25h-301v25c64 5 78 16 78 58c0 8 -5 49 -15 123h-213l-58 -101c-11 -18 -15 -32 -15 -45c0 -25 19 -35 65 -35v-25h-194v25c35 8 50 20 82 69l365 582h24l99 -566c13 -76 17 -80 83 -85zM193 246h184l-38 240zM402 716h-49l120 130c35 37 51 49 69 49
c26 0 48 -21 48 -46c0 -19 -8 -30 -39 -47z" />
    <glyph glyph-name="Acircumflex" unicode="&#xc2;" horiz-adv-x="667" 
d="M622 25v-25h-301v25c64 5 78 16 78 58c0 8 -5 49 -15 123h-213l-58 -101c-11 -18 -15 -32 -15 -45c0 -25 19 -35 65 -35v-25h-194v25c35 8 50 20 82 69l365 582h24l99 -566c13 -76 17 -80 83 -85zM193 246h184l-38 240zM531 716l-88 94l-129 -94h-56l157 172h80l86 -172
h-50z" />
    <glyph glyph-name="Atilde" unicode="&#xc3;" horiz-adv-x="667" 
d="M622 25v-25h-301v25c64 5 78 16 78 58c0 8 -5 49 -15 123h-213l-58 -101c-11 -18 -15 -32 -15 -45c0 -25 19 -35 65 -35v-25h-194v25c35 8 50 20 82 69l365 582h24l99 -566c13 -76 17 -80 83 -85zM193 246h184l-38 240zM565 853h41c-22 -83 -56 -118 -116 -118
c-19 0 -29 2 -56 13l-58 23c-14 5 -28 8 -38 8c-22 0 -34 -11 -47 -43h-40c14 72 57 117 114 117c24 0 56 -8 96 -26c27 -11 42 -16 54 -16c23 0 36 11 50 42z" />
    <glyph glyph-name="Adieresis" unicode="&#xc4;" horiz-adv-x="667" 
d="M622 25v-25h-301v25c64 5 78 16 78 58c0 8 -5 49 -15 123h-213l-58 -101c-11 -18 -15 -32 -15 -45c0 -25 19 -35 65 -35v-25h-194v25c35 8 50 20 82 69l365 582h24l99 -566c13 -76 17 -80 83 -85zM193 246h184l-38 240zM326 853c36 0 66 -30 66 -66
c0 -34 -30 -63 -66 -63c-33 0 -63 30 -63 64c0 36 28 65 63 65zM536 853c36 0 66 -30 66 -66c0 -34 -30 -63 -66 -63c-33 0 -63 30 -63 64c0 36 28 65 63 65z" />
    <glyph glyph-name="Aring" unicode="&#xc5;" horiz-adv-x="667" 
d="M622 25v-25h-301v25c64 5 78 16 78 58c0 8 -5 49 -15 123h-213l-58 -101c-11 -18 -15 -32 -15 -45c0 -25 19 -35 65 -35v-25h-194v25c35 8 50 20 82 69l365 582h24l99 -566c13 -76 17 -80 83 -85zM193 246h184l-38 240zM434 939c58 0 106 -48 106 -106
s-47 -105 -105 -105c-59 0 -106 48 -106 108c0 56 48 103 105 103zM433 892c-30 0 -56 -27 -56 -58c0 -32 26 -58 57 -58c32 0 59 26 59 56c0 33 -27 60 -60 60z" />
    <glyph glyph-name="AE" unicode="&#xc6;" horiz-adv-x="944" 
d="M298 0v24c51 8 61 18 76 71l45 157h-190l-112 -155c-10 -14 -15 -27 -15 -38c0 -23 15 -31 64 -35v-24h-193v24c16 3 22 4 29 9c7 3 18 17 58 68l359 467c13 16 20 32 20 43c0 19 -16 24 -81 28v23h583l-43 -188l-24 5l-2 39c-4 75 -58 112 -161 112
c-41 0 -51 -5 -58 -32l-63 -232h9h10c98 -1 137 23 172 105l26 -4l-71 -270l-25 4l2 21c1 10 1 15 1 23c0 68 -21 82 -132 89l-61 -238c-4 -14 -5 -22 -5 -28c0 -26 16 -37 57 -37c71 0 133 16 175 45c37 26 61 54 103 121l26 -3l-58 -194h-521zM258 291h171l89 329h-12z
" />
    <glyph glyph-name="Ccedilla" unicode="&#xc7;" horiz-adv-x="667" 
d="M274 -12l-33 -49c10 2 17 3 26 3c52 0 89 -30 89 -72c0 -50 -52 -86 -122 -86c-36 0 -69 7 -111 25l21 33c29 -13 45 -17 67 -17c34 0 55 16 55 40c0 23 -17 36 -47 36c-10 0 -18 -1 -29 -4l-13 12l60 89c-109 36 -171 124 -171 243c0 239 182 437 401 437
c41 0 85 -7 130 -21c15 -5 30 -8 37 -8c16 0 24 7 38 29h30l-49 -232l-32 6c2 13 3 22 3 35c0 96 -50 156 -130 156c-41 0 -80 -15 -116 -45c-89 -75 -159 -246 -159 -390c0 -109 56 -174 150 -174c30 0 61 6 88 18c42 17 69 41 118 99l30 -21c-31 -44 -48 -61 -77 -84
c-56 -42 -121 -64 -192 -64c-20 0 -40 2 -62 6z" />
    <glyph glyph-name="Egrave" unicode="&#xc8;" horiz-adv-x="667" 
d="M614 192l-58 -192h-548v25c51 8 63 19 79 71l119 445c6 22 10 46 10 59c0 11 -4 20 -10 24c-7 4 -28 9 -63 14v24h534l-41 -188l-27 5c0 62 -7 87 -30 110c-27 27 -81 42 -153 42c-40 0 -52 -9 -62 -44l-59 -221c131 -1 156 12 202 105l28 -4l-72 -270l-27 5
c2 19 3 30 3 43c0 69 -29 88 -143 90l-54 -207c-4 -14 -5 -19 -7 -25c-5 -19 -8 -30 -8 -36c0 -25 17 -35 61 -35c85 0 152 18 207 57c39 27 60 52 94 108zM523 716h-45l-132 88c-22 15 -34 31 -34 47c0 23 21 44 44 44c19 0 40 -12 56 -33z" />
    <glyph glyph-name="Eacute" unicode="&#xc9;" horiz-adv-x="667" 
d="M614 192l-58 -192h-548v25c51 8 63 19 79 71l119 445c6 22 10 46 10 59c0 11 -4 20 -10 24c-7 4 -28 9 -63 14v24h534l-41 -188l-27 5c0 62 -7 87 -30 110c-27 27 -81 42 -153 42c-40 0 -52 -9 -62 -44l-59 -221c131 -1 156 12 202 105l28 -4l-72 -270l-27 5
c2 19 3 30 3 43c0 69 -29 88 -143 90l-54 -207c-4 -14 -5 -19 -7 -25c-5 -19 -8 -30 -8 -36c0 -25 17 -35 61 -35c85 0 152 18 207 57c39 27 60 52 94 108zM422 716h-49l120 130c35 37 51 49 69 49c26 0 48 -21 48 -46c0 -19 -9 -30 -38 -47z" />
    <glyph glyph-name="Ecircumflex" unicode="&#xca;" horiz-adv-x="667" 
d="M614 192l-58 -192h-548v25c51 8 63 19 79 71l119 445c6 22 10 46 10 59c0 11 -4 20 -10 24c-7 4 -28 9 -63 14v24h534l-41 -188l-27 5c0 62 -7 87 -30 110c-27 27 -81 42 -153 42c-40 0 -52 -9 -62 -44l-59 -221c131 -1 156 12 202 105l28 -4l-72 -270l-27 5
c2 19 3 30 3 43c0 69 -29 88 -143 90l-54 -207c-4 -14 -5 -19 -7 -25c-5 -19 -8 -30 -8 -36c0 -25 17 -35 61 -35c85 0 152 18 207 57c39 27 60 52 94 108zM540 716l-87 94l-129 -94h-57l158 172h80l86 -172h-51z" />
    <glyph glyph-name="Edieresis" unicode="&#xcb;" horiz-adv-x="667" 
d="M614 192l-58 -192h-548v25c51 8 63 19 79 71l119 445c6 22 10 46 10 59c0 11 -4 20 -10 24c-7 4 -28 9 -63 14v24h534l-41 -188l-27 5c0 62 -7 87 -30 110c-27 27 -81 42 -153 42c-40 0 -52 -9 -62 -44l-59 -221c131 -1 156 12 202 105l28 -4l-72 -270l-27 5
c2 19 3 30 3 43c0 69 -29 88 -143 90l-54 -207c-4 -14 -5 -19 -7 -25c-5 -19 -8 -30 -8 -36c0 -25 17 -35 61 -35c85 0 152 18 207 57c39 27 60 52 94 108zM327 853c36 0 66 -30 66 -66c0 -34 -30 -63 -66 -63c-33 0 -63 30 -63 64c0 36 28 65 63 65zM537 853
c36 0 66 -30 66 -66c0 -34 -30 -63 -66 -63c-33 0 -63 30 -63 64c0 36 28 65 63 65z" />
    <glyph glyph-name="Igrave" unicode="&#xcc;" horiz-adv-x="389" 
d="M295 25v-25h-293v25c49 6 63 19 79 71l119 444c5 20 10 48 10 60c0 11 -4 20 -10 23c-7 5 -18 8 -31 9l-32 5v25h295v-25c-51 -6 -65 -18 -81 -71l-110 -416c-15 -57 -18 -69 -18 -85c0 -29 15 -37 72 -40zM384 716h-44l-133 88c-22 15 -34 32 -34 47c0 23 21 44 45 44
c19 0 39 -12 55 -33z" />
    <glyph glyph-name="Iacute" unicode="&#xcd;" horiz-adv-x="389" 
d="M295 25v-25h-293v25c49 6 63 19 79 71l119 444c5 20 10 48 10 60c0 11 -4 20 -10 23c-7 5 -18 8 -31 9l-32 5v25h295v-25c-51 -6 -65 -18 -81 -71l-110 -416c-15 -57 -18 -69 -18 -85c0 -29 15 -37 72 -40zM276 719h-49l120 130c35 37 52 49 70 49c26 0 47 -21 47 -47
c0 -19 -9 -29 -38 -46z" />
    <glyph glyph-name="Icircumflex" unicode="&#xce;" horiz-adv-x="389" 
d="M295 25v-25h-293v25c49 6 63 19 79 71l119 444c5 20 10 48 10 60c0 11 -4 20 -10 23c-7 5 -18 8 -31 9l-32 5v25h295v-25c-51 -6 -65 -18 -81 -71l-110 -416c-15 -57 -18 -69 -18 -85c0 -29 15 -37 72 -40zM401 716l-88 94l-129 -94h-56l157 172h80l86 -172h-50z" />
    <glyph glyph-name="Idieresis" unicode="&#xcf;" horiz-adv-x="389" 
d="M295 25v-25h-293v25c49 6 63 19 79 71l119 444c5 20 10 48 10 60c0 11 -4 20 -10 23c-7 5 -18 8 -31 9l-32 5v25h295v-25c-51 -6 -65 -18 -81 -71l-110 -416c-15 -57 -18 -69 -18 -85c0 -29 15 -37 72 -40zM206 853c36 0 66 -30 66 -66c0 -34 -30 -63 -66 -63
c-33 0 -63 30 -63 64c0 36 28 65 63 65zM416 853c36 0 66 -30 66 -66c0 -34 -30 -63 -66 -63c-33 0 -63 30 -63 64c0 36 28 65 63 65z" />
    <glyph glyph-name="Eth" unicode="&#xd0;" horiz-adv-x="722" 
d="M156 369l45 168c9 36 12 48 12 58c0 14 -4 23 -11 27c-6 4 -27 9 -62 15v25h287c187 0 299 -102 299 -273c0 -223 -186 -389 -438 -389h-283v25c48 6 64 21 79 71l61 229h-101l12 44h100zM303 369h121l-12 -44h-121l-53 -200l-1 -4c-8 -22 -12 -41 -12 -53
c0 -24 16 -34 54 -34c94 0 164 36 216 111c53 77 85 191 85 305c0 122 -54 181 -165 181c-31 0 -46 -10 -53 -38z" />
    <glyph glyph-name="Ntilde" unicode="&#xd1;" horiz-adv-x="722" 
d="M335 662l215 -460l78 284c11 39 17 74 17 93c0 38 -21 53 -79 58v25h206l1 -25c-57 -13 -63 -21 -101 -151l-138 -501h-28l-257 543l-96 -352c-12 -43 -18 -74 -18 -92c0 -39 21 -54 80 -59v-25h-206v25c54 11 61 22 99 151l117 407c-20 43 -29 49 -83 54v25h193z
M624 853h41c-22 -83 -57 -118 -116 -118c-19 0 -29 2 -56 13l-59 23c-13 5 -27 8 -37 8c-22 0 -35 -11 -48 -43h-39c14 72 57 117 114 117c24 0 56 -8 96 -26c26 -11 42 -16 54 -16c23 0 36 11 50 42z" />
    <glyph glyph-name="Ograve" unicode="&#xd2;" horiz-adv-x="722" 
d="M476 678c138 0 241 -98 241 -230c0 -145 -80 -301 -202 -391c-66 -49 -141 -75 -219 -75c-141 0 -235 96 -235 238c0 137 84 296 202 383c67 49 141 75 213 75zM473 644c-64 0 -116 -40 -166 -130c-54 -95 -103 -274 -103 -377c0 -75 39 -121 102 -121c53 0 97 30 143 96
c66 96 125 292 125 413c0 71 -41 119 -101 119zM568 716h-45l-132 88c-22 15 -34 31 -34 47c0 23 21 44 45 44c19 0 39 -12 55 -33z" />
    <glyph glyph-name="Oacute" unicode="&#xd3;" horiz-adv-x="722" 
d="M476 678c138 0 241 -98 241 -230c0 -145 -80 -301 -202 -391c-66 -49 -141 -75 -219 -75c-141 0 -235 96 -235 238c0 137 84 296 202 383c67 49 141 75 213 75zM473 644c-64 0 -116 -40 -166 -130c-54 -95 -103 -274 -103 -377c0 -75 39 -121 102 -121c53 0 97 30 143 96
c66 96 125 292 125 413c0 71 -41 119 -101 119zM460 716h-48l120 130c34 37 51 49 68 49c26 0 48 -21 48 -46c0 -19 -9 -30 -38 -47z" />
    <glyph glyph-name="Ocircumflex" unicode="&#xd4;" horiz-adv-x="722" 
d="M476 678c138 0 241 -98 241 -230c0 -145 -80 -301 -202 -391c-66 -49 -141 -75 -219 -75c-141 0 -235 96 -235 238c0 137 84 296 202 383c67 49 141 75 213 75zM473 644c-64 0 -116 -40 -166 -130c-54 -95 -103 -274 -103 -377c0 -75 39 -121 102 -121c53 0 97 30 143 96
c66 96 125 292 125 413c0 71 -41 119 -101 119zM586 716l-88 94l-129 -94h-56l157 172h80l86 -172h-50z" />
    <glyph glyph-name="Otilde" unicode="&#xd5;" horiz-adv-x="722" 
d="M476 678c138 0 241 -98 241 -230c0 -145 -80 -301 -202 -391c-66 -49 -141 -75 -219 -75c-141 0 -235 96 -235 238c0 137 84 296 202 383c67 49 141 75 213 75zM473 644c-64 0 -116 -40 -166 -130c-54 -95 -103 -274 -103 -377c0 -75 39 -121 102 -121c53 0 97 30 143 96
c66 96 125 292 125 413c0 71 -41 119 -101 119zM625 853h41c-22 -83 -56 -118 -116 -118c-18 0 -29 2 -56 13l-58 23c-14 5 -28 8 -38 8c-22 0 -34 -11 -47 -43h-40c14 72 57 117 114 117c25 0 56 -9 97 -26c26 -11 41 -16 53 -16c23 0 36 11 50 42z" />
    <glyph glyph-name="Odieresis" unicode="&#xd6;" horiz-adv-x="722" 
d="M476 678c138 0 241 -98 241 -230c0 -145 -80 -301 -202 -391c-66 -49 -141 -75 -219 -75c-141 0 -235 96 -235 238c0 137 84 296 202 383c67 49 141 75 213 75zM473 644c-64 0 -116 -40 -166 -130c-54 -95 -103 -274 -103 -377c0 -75 39 -121 102 -121c53 0 97 30 143 96
c66 96 125 292 125 413c0 71 -41 119 -101 119zM377 853c36 0 66 -30 66 -66c0 -34 -30 -63 -66 -63c-33 0 -63 30 -63 64c0 36 28 65 63 65zM587 853c36 0 66 -30 66 -66c0 -34 -30 -63 -66 -63c-33 0 -63 30 -63 64c0 36 28 65 63 65z" />
    <glyph glyph-name="multiply" unicode="&#xd7;" horiz-adv-x="570" 
d="M244 304l-174 173l61 61l174 -174l172 174l62 -61l-173 -173l175 -173l-61 -62l-174 174l-172 -174l-62 62z" />
    <glyph glyph-name="Oslash" unicode="&#xd8;" horiz-adv-x="722" 
d="M658 756l-62 -107c39 -22 55 -36 74 -60c29 -38 47 -91 47 -142c0 -145 -80 -300 -202 -390c-67 -49 -141 -75 -216 -75c-31 0 -52 3 -82 13l-69 -119h-47l77 135c-31 18 -44 28 -60 47c-37 41 -57 95 -57 155c0 238 203 465 414 465c30 0 51 -3 82 -13l52 91h49zM215 76
l318 548c-19 14 -37 20 -63 20c-61 0 -115 -43 -162 -128c-57 -102 -104 -273 -104 -375c0 -22 4 -45 11 -65zM560 587l-319 -549c20 -16 39 -22 65 -22c53 0 98 30 143 96c64 94 125 293 125 408c0 22 -5 44 -14 67z" />
    <glyph glyph-name="Ugrave" unicode="&#xd9;" horiz-adv-x="722" 
d="M769 662v-25c-55 -11 -61 -21 -100 -151l-64 -226c-31 -108 -53 -160 -87 -199c-44 -52 -110 -79 -194 -79c-131 0 -222 68 -222 164v5c-1 25 11 87 32 169l54 204c8 31 14 61 14 74c0 27 -4 29 -72 39v25h308v-25c-62 -3 -76 -14 -93 -71l-79 -297
c-23 -85 -27 -104 -27 -131c0 -63 46 -101 121 -101c54 0 98 20 131 59c30 37 51 86 77 183l57 207c11 43 18 78 18 95c0 35 -23 51 -80 56v25h206zM560 716h-45l-132 88c-22 15 -34 31 -34 47c0 24 21 44 44 44c20 0 40 -12 56 -33z" />
    <glyph glyph-name="Uacute" unicode="&#xda;" horiz-adv-x="722" 
d="M769 662v-25c-55 -11 -61 -21 -100 -151l-64 -226c-31 -108 -53 -160 -87 -199c-44 -52 -110 -79 -194 -79c-131 0 -222 68 -222 164v5c-1 25 11 87 32 169l54 204c8 31 14 61 14 74c0 27 -4 29 -72 39v25h308v-25c-62 -3 -76 -14 -93 -71l-79 -297
c-23 -85 -27 -104 -27 -131c0 -63 46 -101 121 -101c54 0 98 20 131 59c30 37 51 86 77 183l57 207c11 43 18 78 18 95c0 35 -23 51 -80 56v25h206zM516 716h-48l120 130c34 37 51 49 69 49c26 0 48 -21 48 -46c0 -19 -8 -30 -39 -47z" />
    <glyph glyph-name="Ucircumflex" unicode="&#xdb;" horiz-adv-x="722" 
d="M769 662v-25c-55 -11 -61 -21 -100 -151l-64 -226c-31 -108 -53 -160 -87 -199c-44 -52 -110 -79 -194 -79c-131 0 -222 68 -222 164v5c-1 25 11 87 32 169l54 204c8 31 14 61 14 74c0 27 -4 29 -72 39v25h308v-25c-62 -3 -76 -14 -93 -71l-79 -297
c-23 -85 -27 -104 -27 -131c0 -63 46 -101 121 -101c54 0 98 20 131 59c30 37 51 86 77 183l57 207c11 43 18 78 18 95c0 35 -23 51 -80 56v25h206zM618 716l-88 94l-129 -94h-56l157 172h80l87 -172h-51z" />
    <glyph glyph-name="Udieresis" unicode="&#xdc;" horiz-adv-x="722" 
d="M769 662v-25c-55 -11 -61 -21 -100 -151l-64 -226c-31 -108 -53 -160 -87 -199c-44 -52 -110 -79 -194 -79c-131 0 -222 68 -222 164v5c-1 25 11 87 32 169l54 204c8 31 14 61 14 74c0 27 -4 29 -72 39v25h308v-25c-62 -3 -76 -14 -93 -71l-79 -297
c-23 -85 -27 -104 -27 -131c0 -63 46 -101 121 -101c54 0 98 20 131 59c30 37 51 86 77 183l57 207c11 43 18 78 18 95c0 35 -23 51 -80 56v25h206zM406 853c36 0 66 -30 66 -66c0 -34 -30 -63 -66 -63c-33 0 -63 30 -63 64c0 36 28 65 63 65zM615 853c36 0 66 -30 66 -66
c0 -34 -30 -63 -66 -63c-33 0 -63 30 -63 64c0 36 28 65 63 65z" />
    <glyph glyph-name="Yacute" unicode="&#xdd;" horiz-adv-x="611" 
d="M265 310l-88 265c-19 53 -22 55 -73 62v25h280v-25c-54 -1 -69 -9 -69 -35c0 -18 10 -54 33 -119c19 -58 31 -95 45 -135l126 184c21 30 26 42 26 59c0 35 -14 45 -67 46v25h206v-25c-38 -8 -57 -22 -90 -68l-186 -264l-51 -189c-6 -23 -7 -31 -7 -44
c0 -37 12 -44 76 -47v-25h-318v25c68 5 82 15 99 71zM439 716h-48l120 130c34 37 51 49 69 49c26 0 48 -21 48 -46c0 -19 -8 -29 -39 -47z" />
    <glyph glyph-name="Thorn" unicode="&#xde;" horiz-adv-x="611" 
d="M143 637v25h291l-1 -25c-52 -7 -61 -15 -80 -71l-12 -38h47c138 0 212 -54 212 -154c0 -119 -105 -194 -270 -194c-26 0 -45 1 -79 5l-14 -63c-9 -41 -10 -48 -10 -58c0 -28 16 -36 72 -39v-25h-291v25c51 7 63 18 79 71l119 444c6 22 10 46 10 60c0 11 -4 20 -10 24
c-7 3 -28 8 -63 13zM322 453l-62 -237c19 -1 26 -1 42 -1c69 0 106 23 131 81c13 31 22 75 22 110c0 57 -30 90 -83 90c-19 0 -30 -4 -39 -14c-4 -5 -4 -5 -11 -29z" />
    <glyph glyph-name="germandbls" unicode="&#xdf;" 
d="M271 380l6 37l16 -1c5 -1 26 4 31 8c36 19 65 101 65 183c0 42 -15 61 -46 61c-45 0 -74 -48 -100 -164l-88 -403c-43 -199 -117 -299 -221 -299c-58 0 -97 31 -97 76c0 32 20 53 51 53c30 0 47 -17 47 -46c0 -13 -3 -20 -11 -29c-5 -5 -6 -7 -6 -12c0 -8 4 -11 16 -11
c19 0 29 4 38 17c17 21 33 68 47 130l88 419c42 196 126 299 246 299c85 0 146 -55 146 -131c0 -36 -15 -72 -40 -96c-33 -32 -63 -48 -139 -76c53 -11 76 -20 100 -42c28 -24 43 -59 43 -101c0 -137 -102 -259 -217 -259c-29 0 -48 6 -71 22l19 34l4 -4
c8 -10 27 -18 42 -18c23 0 43 19 61 58c23 50 43 149 43 215c0 29 -9 54 -24 65c-10 8 -21 11 -49 15z" />
    <glyph glyph-name="agrave" unicode="&#xe0;" 
d="M463 126l21 -15c-56 -86 -102 -125 -149 -125c-37 0 -66 29 -66 66c0 14 3 27 13 66c-56 -95 -100 -131 -162 -131c-64 0 -107 51 -107 126c0 155 147 344 268 344c43 0 65 -21 74 -71l17 58l110 7l-69 -233c-22 -77 -32 -121 -32 -147c0 -10 4 -15 12 -15
c15 0 30 15 70 70zM295 415c-26 2 -59 -29 -88 -81c-41 -73 -72 -171 -72 -223c0 -31 19 -54 44 -54c28 0 57 26 83 74c38 68 70 178 70 237c0 27 -15 45 -37 47zM408 511h-44l-132 88c-22 15 -34 31 -34 47c0 23 21 44 44 44c19 0 39 -12 55 -33z" />
    <glyph glyph-name="aacute" unicode="&#xe1;" 
d="M463 126l21 -15c-56 -86 -102 -125 -149 -125c-37 0 -66 29 -66 66c0 14 3 27 13 66c-56 -95 -100 -131 -162 -131c-64 0 -107 51 -107 126c0 155 147 344 268 344c43 0 65 -21 74 -71l17 58l110 7l-69 -233c-22 -77 -32 -121 -32 -147c0 -10 4 -15 12 -15
c15 0 30 15 70 70zM295 415c-26 2 -59 -29 -88 -81c-41 -73 -72 -171 -72 -223c0 -31 19 -54 44 -54c28 0 57 26 83 74c38 68 70 178 70 237c0 27 -15 45 -37 47zM313 511h-49l120 130c34 37 52 49 69 49c26 0 48 -21 48 -47c0 -18 -8 -29 -38 -46z" />
    <glyph glyph-name="acircumflex" unicode="&#xe2;" 
d="M463 126l21 -15c-56 -86 -102 -125 -149 -125c-37 0 -66 29 -66 66c0 14 3 27 13 66c-56 -95 -100 -131 -162 -131c-64 0 -107 51 -107 126c0 155 147 344 268 344c43 0 65 -21 74 -71l17 58l110 7l-69 -233c-22 -77 -32 -121 -32 -147c0 -10 4 -15 12 -15
c15 0 30 15 70 70zM295 415c-26 2 -59 -29 -88 -81c-41 -73 -72 -171 -72 -223c0 -31 19 -54 44 -54c28 0 57 26 83 74c38 68 70 178 70 237c0 27 -15 45 -37 47zM427 511l-88 94l-129 -94h-56l157 172h80l86 -172h-50z" />
    <glyph glyph-name="atilde" unicode="&#xe3;" 
d="M463 126l21 -15c-56 -86 -102 -125 -149 -125c-37 0 -66 29 -66 66c0 14 3 27 13 66c-56 -95 -100 -131 -162 -131c-64 0 -107 51 -107 126c0 155 147 344 268 344c43 0 65 -21 74 -71l17 58l110 7l-69 -233c-22 -77 -32 -121 -32 -147c0 -10 4 -15 12 -15
c15 0 30 15 70 70zM295 415c-26 2 -59 -29 -88 -81c-41 -73 -72 -171 -72 -223c0 -31 19 -54 44 -54c28 0 57 26 83 74c38 68 70 178 70 237c0 27 -15 45 -37 47zM476 648h41c-22 -83 -56 -118 -116 -118c-18 0 -29 3 -56 13l-58 23c-14 5 -28 8 -38 8
c-22 0 -34 -11 -47 -43h-40c13 71 57 117 114 117c25 0 56 -8 96 -26c26 -11 42 -16 54 -16c23 0 35 10 50 42z" />
    <glyph glyph-name="adieresis" unicode="&#xe4;" 
d="M463 126l21 -15c-56 -86 -102 -125 -149 -125c-37 0 -66 29 -66 66c0 14 3 27 13 66c-56 -95 -100 -131 -162 -131c-64 0 -107 51 -107 126c0 155 147 344 268 344c43 0 65 -21 74 -71l17 58l110 7l-69 -233c-22 -77 -32 -121 -32 -147c0 -10 4 -15 12 -15
c15 0 30 15 70 70zM295 415c-26 2 -59 -29 -88 -81c-41 -73 -72 -171 -72 -223c0 -31 19 -54 44 -54c28 0 57 26 83 74c38 68 70 178 70 237c0 27 -15 45 -37 47zM222 649c36 0 66 -30 66 -66c0 -34 -30 -63 -66 -63c-33 0 -63 30 -63 64c0 36 28 65 63 65zM432 649
c36 0 66 -30 66 -66c0 -34 -30 -63 -66 -63c-33 0 -63 30 -63 64c0 36 28 65 63 65z" />
    <glyph glyph-name="aring" unicode="&#xe5;" 
d="M463 126l21 -15c-56 -86 -102 -125 -149 -125c-37 0 -66 29 -66 66c0 14 3 27 13 66c-56 -95 -100 -131 -162 -131c-64 0 -107 51 -107 126c0 155 147 344 268 344c43 0 65 -21 74 -71l17 58l110 7l-69 -233c-22 -77 -32 -121 -32 -147c0 -10 4 -15 12 -15
c15 0 30 15 70 70zM295 415c-26 2 -59 -29 -88 -81c-41 -73 -72 -171 -72 -223c0 -31 19 -54 44 -54c28 0 57 26 83 74c38 68 70 178 70 237c0 27 -15 45 -37 47zM344 746c58 0 106 -48 106 -106s-47 -105 -105 -105c-59 0 -106 48 -106 108c0 56 48 103 105 103zM343 698
c-30 0 -56 -26 -56 -57c0 -32 26 -58 57 -58c32 0 59 25 59 56c0 32 -27 59 -60 59z" />
    <glyph glyph-name="ae" unicode="&#xe6;" horiz-adv-x="722" 
d="M381 392l18 57l102 5l-19 -64c42 49 70 64 118 64c63 0 100 -32 100 -87c0 -81 -82 -146 -225 -179l-39 -9c-3 -20 -4 -30 -4 -46c0 -51 26 -84 66 -84c47 0 88 30 122 89l28 -17c-43 -88 -109 -134 -191 -134c-48 0 -88 16 -110 44c-17 21 -24 40 -33 86
c-55 -92 -104 -129 -171 -129c-65 0 -113 50 -113 117c0 162 146 352 270 352c44 0 64 -16 81 -65zM316 414c-32 0 -64 -28 -96 -86c-36 -65 -62 -148 -65 -205c-2 -39 18 -66 48 -66c33 0 62 25 92 78c37 67 68 169 68 223c0 32 -20 56 -47 56zM448 229l-5 -17
c28 4 50 12 80 31c58 36 88 83 88 140c0 29 -10 41 -33 41c-50 0 -91 -62 -130 -195z" />
    <glyph glyph-name="ccedilla" unicode="&#xe7;" horiz-adv-x="444" 
d="M163 -12l-33 -49c10 2 17 3 26 3c52 0 89 -30 89 -72c0 -49 -52 -86 -122 -86c-36 0 -68 7 -111 25l22 33c28 -13 44 -17 66 -17c34 0 55 16 55 40c0 23 -17 36 -47 36c-10 0 -18 -1 -29 -4l-13 12l59 87c-59 20 -96 74 -96 142c0 158 141 319 281 319
c66 0 111 -36 111 -90c0 -40 -25 -68 -61 -68c-34 0 -58 22 -58 52c0 11 4 23 13 37c6 10 8 15 8 19c0 10 -10 17 -22 17c-30 0 -58 -24 -85 -71c-35 -63 -60 -151 -60 -214c0 -53 29 -89 73 -89c42 0 73 23 120 90l27 -18c-34 -50 -50 -68 -75 -91
c-33 -28 -76 -44 -120 -44c-6 0 -11 0 -18 1z" />
    <glyph glyph-name="egrave" unicode="&#xe8;" horiz-adv-x="444" 
d="M347 141l29 -17c-59 -99 -112 -137 -187 -137c-87 0 -151 62 -151 147c0 163 141 323 284 323c60 0 104 -36 104 -87c0 -34 -19 -71 -53 -103c-48 -45 -97 -66 -201 -87c-4 -19 -5 -30 -5 -47c0 -55 22 -83 64 -83s70 22 116 91zM179 212c57 18 81 32 108 60
c31 32 48 74 48 118c0 23 -9 34 -28 34c-48 0 -93 -75 -128 -212zM394 511h-45l-132 88c-22 15 -34 31 -34 47c0 23 21 44 44 44c19 0 40 -12 56 -33z" />
    <glyph glyph-name="eacute" unicode="&#xe9;" horiz-adv-x="444" 
d="M347 141l29 -17c-59 -99 -112 -137 -187 -137c-87 0 -151 62 -151 147c0 163 141 323 284 323c60 0 104 -36 104 -87c0 -34 -19 -71 -53 -103c-48 -45 -97 -66 -201 -87c-4 -19 -5 -30 -5 -47c0 -55 22 -83 64 -83s70 22 116 91zM179 212c57 18 81 32 108 60
c31 32 48 74 48 118c0 23 -9 34 -28 34c-48 0 -93 -75 -128 -212zM290 511h-48l120 130c35 38 51 49 69 49c25 0 47 -21 47 -46c0 -19 -9 -30 -38 -47z" />
    <glyph glyph-name="ecircumflex" unicode="&#xea;" horiz-adv-x="444" 
d="M347 141l29 -17c-59 -99 -112 -137 -187 -137c-87 0 -151 62 -151 147c0 163 141 323 284 323c60 0 104 -36 104 -87c0 -34 -19 -71 -53 -103c-48 -45 -97 -66 -201 -87c-4 -19 -5 -30 -5 -47c0 -55 22 -83 64 -83s70 22 116 91zM179 212c57 18 81 32 108 60
c31 32 48 74 48 118c0 23 -9 34 -28 34c-48 0 -93 -75 -128 -212zM408 511l-88 94l-129 -94h-56l157 172h80l86 -172h-50z" />
    <glyph glyph-name="edieresis" unicode="&#xeb;" horiz-adv-x="444" 
d="M347 141l29 -17c-59 -99 -112 -137 -187 -137c-87 0 -151 62 -151 147c0 163 141 323 284 323c60 0 104 -36 104 -87c0 -34 -19 -71 -53 -103c-48 -45 -97 -66 -201 -87c-4 -19 -5 -30 -5 -47c0 -55 22 -83 64 -83s70 22 116 91zM179 212c57 18 81 32 108 60
c31 32 48 74 48 118c0 23 -9 34 -28 34c-48 0 -93 -75 -128 -212zM193 649c36 0 66 -30 66 -66c0 -34 -30 -63 -66 -63c-33 0 -63 30 -63 64c0 36 28 65 63 65zM403 649c36 0 66 -30 66 -66c0 -34 -30 -63 -66 -63c-33 0 -63 30 -63 64c0 36 28 65 63 65z" />
    <glyph glyph-name="igrave" unicode="&#xec;" horiz-adv-x="278" 
d="M246 140l22 -14c-68 -105 -105 -135 -164 -135c-41 0 -69 25 -69 62c0 14 5 41 12 69l56 212c5 18 8 33 8 40c0 19 -16 29 -46 29h-13v27c78 6 146 15 200 27l-89 -331c-3 -14 -8 -42 -8 -51c0 -8 7 -15 15 -15c15 0 37 21 63 60zM288 511h-45l-132 88
c-22 15 -34 31 -34 47c0 24 21 44 44 44c20 0 40 -12 56 -33z" />
    <glyph glyph-name="iacute" unicode="&#xed;" horiz-adv-x="278" 
d="M246 140l22 -14c-68 -105 -105 -135 -164 -135c-41 0 -69 25 -69 62c0 14 5 41 12 69l56 212c5 18 8 33 8 40c0 19 -16 29 -46 29h-13v27c78 6 146 15 200 27l-89 -331c-3 -14 -8 -42 -8 -51c0 -8 7 -15 15 -15c15 0 36 20 63 60zM190 511h-49l120 130c35 37 52 49 69 49
c26 0 48 -21 48 -46c0 -19 -9 -30 -38 -47z" />
    <glyph glyph-name="icircumflex" unicode="&#xee;" horiz-adv-x="278" 
d="M290 511l-87 94l-130 -94h-56l157 172h81l86 -172h-51zM247 140l22 -14c-69 -105 -105 -135 -165 -135c-41 0 -69 25 -69 63c0 13 5 38 12 68l57 212c4 18 7 33 7 40c0 19 -16 29 -46 29h-13v27c78 6 147 15 200 27l-88 -331c-5 -16 -9 -42 -9 -51c0 -8 7 -15 15 -15
c15 0 37 21 63 60z" />
    <glyph glyph-name="idieresis" unicode="&#xef;" horiz-adv-x="278" 
d="M246 140l22 -14c-68 -105 -105 -135 -164 -135c-41 0 -69 25 -69 62c0 14 5 43 12 69l56 212c4 17 7 31 7 40c0 19 -16 29 -46 29h-12l-1 27c79 6 147 15 200 27l-88 -331c-5 -19 -9 -42 -9 -51c0 -8 7 -15 15 -15c15 0 37 21 64 60zM93 649c36 0 66 -30 66 -66
c0 -34 -30 -63 -66 -63c-33 0 -63 30 -63 64c0 36 28 65 63 65zM303 649c36 0 66 -30 66 -66c0 -34 -30 -63 -66 -63c-33 0 -63 30 -63 64c0 36 28 65 63 65z" />
    <glyph glyph-name="eth" unicode="&#xf0;" 
d="M312 568l-118 -61l-33 30l121 64c-40 37 -75 57 -115 64l43 27c48 -7 88 -25 131 -60l105 57l34 -32l-105 -55c68 -79 94 -145 94 -236c0 -207 -128 -379 -281 -379c-90 0 -157 63 -157 147c0 163 134 323 270 323c31 0 52 -12 71 -41l2 4c-5 53 -24 98 -62 148zM304 428
c-31 0 -59 -22 -84 -67c-36 -64 -71 -201 -71 -275c0 -47 16 -70 49 -70c35 0 64 28 92 90c32 71 61 196 61 264c0 36 -18 58 -47 58z" />
    <glyph glyph-name="ntilde" unicode="&#xf1;" horiz-adv-x="556" 
d="M500 134l22 -13c-57 -97 -97 -130 -156 -130c-43 0 -68 22 -68 60c0 26 12 81 27 129l53 164c3 10 5 17 5 21c0 11 -12 21 -25 21c-18 0 -48 -22 -68 -48c-61 -84 -96 -168 -141 -338h-120c27 101 36 135 55 202c30 108 44 163 44 176c0 19 -12 24 -54 25v27
c56 2 134 12 198 26l-62 -196c66 98 84 122 120 157c27 25 63 40 99 40c47 0 73 -26 73 -74c0 -25 -9 -66 -25 -114l-35 -107c-16 -48 -24 -77 -24 -87s6 -17 14 -17c16 0 28 13 68 76zM478 648h40c-21 -83 -56 -118 -115 -118c-19 0 -30 3 -56 13l-59 23c-13 5 -27 8 -37 8
c-23 0 -34 -10 -48 -43h-39c12 71 57 117 113 117c25 0 56 -8 97 -26c26 -11 42 -16 53 -16c24 0 36 10 51 42z" />
    <glyph glyph-name="ograve" unicode="&#xf2;" 
d="M313 457c91 0 156 -63 156 -150c0 -168 -133 -320 -280 -320c-91 0 -158 63 -158 148c0 166 137 322 282 322zM304 428c-31 0 -60 -22 -85 -68c-35 -61 -70 -204 -70 -282c0 -39 19 -62 49 -62c35 0 64 28 92 90c32 70 61 196 61 264c0 36 -18 58 -47 58zM414 511h-44
l-132 88c-22 15 -34 31 -34 47c0 23 21 44 44 44c19 0 39 -12 56 -33z" />
    <glyph glyph-name="oacute" unicode="&#xf3;" 
d="M313 457c91 0 156 -63 156 -150c0 -168 -133 -320 -280 -320c-91 0 -158 63 -158 148c0 166 137 322 282 322zM304 428c-31 0 -60 -22 -85 -68c-35 -61 -70 -204 -70 -282c0 -39 19 -62 49 -62c35 0 64 28 92 90c32 70 61 196 61 264c0 36 -18 58 -47 58zM301 511h-48
l120 130c34 37 51 49 68 49c26 0 48 -21 48 -46c0 -19 -9 -30 -38 -47z" />
    <glyph glyph-name="ocircumflex" unicode="&#xf4;" 
d="M313 457c91 0 156 -63 156 -150c0 -168 -133 -320 -280 -320c-91 0 -158 63 -158 148c0 166 137 322 282 322zM304 428c-31 0 -60 -22 -85 -68c-35 -61 -70 -204 -70 -282c0 -39 19 -62 49 -62c35 0 64 28 92 90c32 70 61 196 61 264c0 36 -18 58 -47 58zM422 511l-88 94
l-129 -94h-56l157 172h80l86 -172h-50z" />
    <glyph glyph-name="otilde" unicode="&#xf5;" 
d="M313 457c91 0 156 -63 156 -150c0 -168 -133 -320 -280 -320c-91 0 -158 63 -158 148c0 166 137 322 282 322zM304 428c-31 0 -60 -22 -85 -68c-35 -61 -70 -204 -70 -282c0 -39 19 -62 49 -62c35 0 64 28 92 90c32 70 61 196 61 264c0 36 -18 58 -47 58zM465 648h40
c-21 -83 -56 -118 -115 -118c-19 0 -30 2 -56 13l-59 23c-13 5 -27 8 -37 8c-23 0 -35 -11 -48 -43h-39c13 72 57 117 113 117c25 0 56 -8 97 -26c26 -11 42 -16 53 -16c23 0 36 10 51 42z" />
    <glyph glyph-name="odieresis" unicode="&#xf6;" 
d="M313 457c91 0 156 -63 156 -150c0 -168 -133 -320 -280 -320c-91 0 -158 63 -158 148c0 166 137 322 282 322zM304 428c-31 0 -60 -22 -85 -68c-35 -61 -70 -204 -70 -282c0 -39 19 -62 49 -62c35 0 64 28 92 90c32 70 61 196 61 264c0 36 -18 58 -47 58zM217 649
c36 0 66 -30 66 -66c0 -34 -30 -63 -66 -63c-33 0 -63 30 -63 64c0 36 28 65 63 65zM427 649c36 0 66 -30 66 -66c0 -34 -30 -63 -66 -63c-33 0 -63 30 -63 64c0 36 28 65 63 65z" />
    <glyph glyph-name="divide" unicode="&#xf7;" horiz-adv-x="570" 
d="M555 260h-499v87h499v-87zM307 172c40 0 73 -34 73 -74c0 -41 -32 -73 -74 -73c-41 0 -73 32 -73 74c0 41 32 73 74 73zM305 582c40 0 73 -33 73 -74c0 -40 -32 -72 -74 -72s-73 32 -73 74c0 41 32 72 74 72z" />
    <glyph glyph-name="oslash" unicode="&#xf8;" 
d="M451 554l-63 -115c56 -28 81 -69 81 -132c0 -167 -133 -320 -280 -320c-17 0 -29 2 -49 8l-63 -113h-40l71 125c-53 30 -77 70 -77 127c0 168 136 323 284 323c13 0 24 -1 42 -6l58 103h36zM149 78l187 337c-10 9 -19 13 -32 13c-31 0 -60 -23 -85 -68
c-35 -63 -70 -201 -70 -275v-7zM350 373l-189 -339c10 -13 21 -18 37 -18c35 0 64 28 92 90c32 70 61 196 61 261c0 3 0 4 -1 6z" />
    <glyph glyph-name="ugrave" unicode="&#xf9;" horiz-adv-x="556" 
d="M500 131l21 -12c-51 -89 -100 -128 -159 -128c-43 0 -64 19 -64 60c0 29 5 54 23 108c-101 -142 -131 -168 -197 -168c-50 0 -75 25 -75 74c0 24 7 58 21 106l38 131c9 29 14 58 14 73c0 20 -9 24 -56 27v27c51 3 106 10 179 24c15 3 22 4 28 4l-92 -305
c-12 -42 -14 -50 -14 -65c0 -17 7 -25 21 -25c19 0 42 17 72 55c57 72 85 138 138 327h117l-76 -265c-11 -39 -23 -92 -23 -104c0 -10 6 -17 14 -17c17 0 36 20 70 73zM436 511h-45l-132 88c-22 15 -34 31 -34 47c0 24 21 44 44 44c20 0 40 -12 56 -33z" />
    <glyph glyph-name="uacute" unicode="&#xfa;" horiz-adv-x="556" 
d="M500 131l21 -12c-51 -89 -100 -128 -159 -128c-43 0 -64 19 -64 60c0 29 5 54 23 108c-101 -142 -131 -168 -197 -168c-50 0 -75 25 -75 74c0 24 7 58 21 106l38 131c9 29 14 58 14 73c0 20 -9 24 -56 27v27c51 3 106 10 179 24c15 3 22 4 28 4l-92 -305
c-12 -42 -14 -50 -14 -65c0 -17 7 -25 21 -25c19 0 42 17 72 55c57 72 85 138 138 327h117l-76 -265c-11 -39 -23 -92 -23 -104c0 -10 6 -17 14 -17c17 0 36 20 70 73zM358 511h-49l120 130c35 37 51 49 70 49c25 0 47 -21 47 -46c0 -19 -9 -30 -38 -47z" />
    <glyph glyph-name="ucircumflex" unicode="&#xfb;" horiz-adv-x="556" 
d="M500 131l21 -12c-51 -89 -100 -128 -159 -128c-43 0 -64 19 -64 60c0 29 5 54 23 108c-101 -142 -131 -168 -197 -168c-50 0 -75 25 -75 74c0 24 7 58 21 106l38 131c9 29 14 58 14 73c0 20 -9 24 -56 27v27c51 3 106 10 179 24c15 3 22 4 28 4l-92 -305
c-12 -42 -14 -50 -14 -65c0 -17 7 -25 21 -25c19 0 42 17 72 55c57 72 85 138 138 327h117l-76 -265c-11 -39 -23 -92 -23 -104c0 -10 6 -17 14 -17c17 0 36 20 70 73zM445 511l-87 94l-129 -94h-57l158 172h80l86 -172h-51z" />
    <glyph glyph-name="udieresis" unicode="&#xfc;" horiz-adv-x="556" 
d="M500 131l21 -12c-51 -89 -100 -128 -159 -128c-43 0 -64 19 -64 60c0 29 5 54 23 108c-101 -142 -131 -168 -197 -168c-50 0 -75 25 -75 74c0 24 7 58 21 106l38 131c9 29 14 58 14 73c0 20 -9 24 -56 27v27c51 3 106 10 179 24c15 3 22 4 28 4l-92 -305
c-12 -42 -14 -50 -14 -65c0 -17 7 -25 21 -25c19 0 42 17 72 55c57 72 85 138 138 327h117l-76 -265c-11 -39 -23 -92 -23 -104c0 -10 6 -17 14 -17c17 0 36 20 70 73zM245 649c36 0 66 -30 66 -66c0 -34 -30 -63 -66 -63c-33 0 -63 30 -63 64c0 36 28 65 63 65zM454 649
c36 0 66 -30 66 -66c0 -34 -30 -63 -66 -63c-33 0 -63 30 -63 64c0 36 28 65 63 65z" />
    <glyph glyph-name="yacute" unicode="&#xfd;" horiz-adv-x="444" 
d="M46 407v26c64 6 100 12 147 24c17 -45 45 -157 67 -274l13 -74c67 132 84 172 84 202c0 14 -5 22 -24 35c-24 18 -31 30 -31 55c0 29 26 56 55 56c34 0 63 -29 63 -64c0 -100 -116 -334 -244 -492c-53 -65 -118 -104 -173 -104c-34 0 -61 26 -61 60c0 28 23 54 49 54
c16 0 44 -9 57 -19c11 -9 28 -16 36 -16c37 0 91 71 91 119c0 31 -18 132 -51 286c-15 71 -32 111 -49 121c-6 4 -12 5 -29 5zM272 511h-48l120 130c34 37 51 49 69 49c26 0 48 -21 48 -47c0 -19 -8 -28 -39 -46z" />
    <glyph glyph-name="thorn" unicode="&#xfe;" 
d="M163 -176l1 -27h-247v27c48 -2 59 11 77 83l157 624c12 49 16 68 16 75c0 20 -15 30 -45 30c-2 0 -11 0 -18 -1v27c89 10 137 17 204 30l-92 -337l3 -3c50 75 92 105 148 105c65 0 107 -48 107 -121c0 -172 -138 -349 -272 -349c-21 0 -32 4 -67 22l-4 -13
c0 -2 -5 -22 -7 -28c-19 -74 -25 -99 -25 -112c0 -24 16 -32 64 -32zM311 387c-25 2 -58 -22 -83 -61c-15 -24 -25 -52 -49 -133c-25 -87 -33 -120 -33 -136c0 -19 17 -35 39 -35c33 0 65 27 95 81c35 64 66 163 70 227c2 32 -13 55 -39 57z" />
    <glyph glyph-name="ydieresis" unicode="&#xff;" horiz-adv-x="444" 
d="M46 407v26c64 6 100 12 147 24c17 -45 45 -157 67 -274l13 -74c67 132 84 172 84 202c0 14 -5 22 -24 35c-24 18 -31 30 -31 55c0 29 26 56 55 56c34 0 63 -29 63 -64c0 -100 -116 -334 -244 -492c-53 -65 -118 -104 -173 -104c-34 0 -61 26 -61 60c0 28 23 54 49 54
c16 0 44 -9 57 -19c11 -9 28 -16 36 -16c37 0 91 71 91 119c0 31 -18 132 -51 286c-15 71 -32 111 -49 121c-6 4 -12 5 -29 5zM159 649c36 0 66 -30 66 -66c0 -34 -30 -63 -66 -63c-33 0 -63 30 -63 64c0 36 28 65 63 65zM369 649c36 0 66 -30 66 -66c0 -34 -30 -63 -66 -63
c-33 0 -63 30 -63 64c0 36 28 65 63 65z" />
    <glyph glyph-name="Amacron" unicode="&#x100;" horiz-adv-x="667" 
d="M622 25v-25h-301v25c64 5 78 16 78 58c0 8 -5 49 -15 123h-213l-58 -101c-11 -18 -15 -32 -15 -45c0 -25 19 -35 65 -35v-25h-194v25c35 8 50 20 82 69l365 582h24l99 -566c13 -76 17 -80 83 -85zM193 246h184l-38 240zM609 824l-16 -69h-322l16 69h322z" />
    <glyph glyph-name="amacron" unicode="&#x101;" 
d="M463 126l21 -15c-56 -86 -102 -125 -149 -125c-37 0 -66 29 -66 66c0 14 3 27 13 66c-56 -95 -100 -131 -162 -131c-64 0 -107 51 -107 126c0 155 147 344 268 344c43 0 65 -21 74 -71l17 58l110 7l-69 -233c-22 -77 -32 -121 -32 -147c0 -10 4 -15 12 -15
c15 0 30 15 70 70zM295 415c-26 2 -59 -29 -88 -81c-41 -73 -72 -171 -72 -223c0 -31 19 -54 44 -54c28 0 57 26 83 74c38 68 70 178 70 237c0 27 -15 45 -37 47zM503 617l-16 -69h-322l16 69h322z" />
    <glyph glyph-name="Abreve" unicode="&#x102;" horiz-adv-x="667" 
d="M622 25v-25h-301v25c64 5 78 16 78 58c0 8 -5 49 -15 123h-213l-58 -101c-11 -18 -15 -32 -15 -45c0 -25 19 -35 65 -35v-25h-194v25c35 8 50 20 82 69l365 582h24l99 -566c13 -76 17 -80 83 -85zM193 246h184l-38 240zM564 879h39c-17 -102 -81 -160 -176 -160
c-97 0 -137 47 -137 160h42c6 -60 39 -89 102 -89c65 0 100 24 130 89z" />
    <glyph glyph-name="abreve" unicode="&#x103;" 
d="M463 126l21 -15c-56 -86 -102 -125 -149 -125c-37 0 -66 29 -66 66c0 14 3 27 13 66c-56 -95 -100 -131 -162 -131c-64 0 -107 51 -107 126c0 155 147 344 268 344c43 0 65 -21 74 -71l17 58l110 7l-69 -233c-22 -77 -32 -121 -32 -147c0 -10 4 -15 12 -15
c15 0 30 15 70 70zM295 415c-26 2 -59 -29 -88 -81c-41 -73 -72 -171 -72 -223c0 -31 19 -54 44 -54c28 0 57 26 83 74c38 68 70 178 70 237c0 27 -15 45 -37 47zM458 671h38c-17 -103 -80 -160 -175 -160c-62 0 -102 22 -122 65c-13 28 -14 33 -15 95h42
c7 -61 39 -89 102 -89c64 0 99 24 130 89z" />
    <glyph glyph-name="Aogonek" unicode="&#x104;" horiz-adv-x="667" 
d="M384 206h-213l-58 -101c-11 -18 -15 -32 -15 -45c0 -25 19 -35 65 -35v-25h-194v25c35 8 50 20 82 69l365 582h24l99 -566c13 -76 17 -80 83 -85v-25c-6 -14 -8 -24 -8 -38c0 -43 22 -65 62 -65c16 0 26 3 46 13c8 4 9 5 14 7l21 -14c-24 -45 -71 -74 -120 -74
c-61 0 -106 34 -106 80c0 28 8 46 42 91h-252v25c64 5 78 16 78 58c0 8 -5 49 -15 123zM193 246h184l-38 240z" />
    <glyph glyph-name="aogonek" unicode="&#x105;" 
d="M463 126l21 -15c-24 -37 -35 -51 -64 -84c-27 -30 -34 -44 -34 -68c0 -40 23 -62 63 -62c15 0 25 3 45 13c8 4 9 5 14 7l22 -14c-25 -46 -71 -74 -121 -74c-62 0 -106 34 -106 80c0 25 6 41 32 77c-41 4 -66 29 -66 66c0 14 3 27 13 66c-56 -95 -100 -131 -162 -131
c-64 0 -107 51 -107 126c0 155 147 344 268 344c43 0 65 -21 74 -71l17 58l110 7l-69 -233c-22 -77 -32 -121 -32 -147c0 -10 4 -15 12 -15c15 0 30 15 70 70zM295 415c-26 2 -59 -29 -88 -81c-41 -73 -72 -171 -72 -223c0 -31 19 -54 44 -54c28 0 57 26 83 74
c38 68 70 178 70 237c0 27 -15 45 -37 47z" />
    <glyph glyph-name="Cacute" unicode="&#x106;" horiz-adv-x="667" 
d="M702 678l-49 -232l-32 6c2 13 3 22 3 35c0 96 -50 156 -130 156c-41 0 -80 -15 -116 -45c-89 -75 -159 -246 -159 -390c0 -109 56 -174 150 -174c30 0 61 6 88 18c42 17 69 41 118 99l30 -21c-31 -44 -48 -61 -77 -84c-55 -42 -121 -64 -191 -64
c-163 0 -271 104 -271 259c0 239 182 437 401 437c41 0 85 -7 130 -21c15 -5 30 -8 37 -8c16 0 24 7 38 29h30zM481 719h-49l120 130c35 37 52 49 70 49c25 0 47 -21 47 -47c0 -19 -8 -29 -38 -46z" />
    <glyph glyph-name="cacute" unicode="&#x107;" horiz-adv-x="444" 
d="M348 140l27 -18c-34 -50 -50 -69 -76 -91c-32 -28 -75 -44 -119 -44c-90 0 -152 62 -152 151c0 158 141 319 280 319c67 0 112 -36 112 -90c0 -40 -25 -68 -61 -68c-34 0 -58 22 -58 52c0 11 4 23 13 37c6 10 8 15 8 19c0 10 -10 17 -22 17c-30 0 -58 -24 -85 -70
c-35 -64 -60 -152 -60 -215c0 -53 29 -89 73 -89c42 0 73 23 120 90zM281 511h-48l120 130c34 37 51 49 69 49c26 0 48 -21 48 -46c0 -19 -8 -29 -39 -47z" />
    <glyph glyph-name="Ccircumflex" unicode="&#x108;" horiz-adv-x="667" 
d="M624 716l-88 94l-129 -94h-57l158 172h80l86 -172h-50zM735 678l-49 -232l-32 6c2 13 3 22 3 35c0 96 -50 156 -130 156c-41 0 -80 -15 -116 -45c-89 -75 -159 -246 -159 -390c0 -109 56 -174 150 -174c30 0 61 6 88 18c42 17 69 41 118 99l30 -21
c-31 -44 -48 -61 -77 -84c-55 -42 -121 -64 -191 -64c-163 0 -271 104 -271 259c0 239 182 437 401 437c41 0 85 -7 130 -21c15 -5 30 -8 37 -8c16 0 24 7 38 29h30z" />
    <glyph glyph-name="ccircumflex" unicode="&#x109;" horiz-adv-x="444" 
d="M348 140l27 -18c-34 -50 -50 -69 -76 -91c-32 -28 -75 -44 -119 -44c-90 0 -152 62 -152 151c0 158 141 319 280 319c67 0 112 -36 112 -90c0 -40 -25 -68 -61 -68c-34 0 -58 22 -58 52c0 11 4 23 13 37c6 10 8 15 8 19c0 10 -10 17 -22 17c-30 0 -58 -24 -85 -70
c-35 -64 -60 -152 -60 -215c0 -53 29 -89 73 -89c42 0 73 23 120 90zM416 511l-87 94l-129 -94h-57l158 172h80l86 -172h-51z" />
    <glyph glyph-name="Cdotaccent" unicode="&#x10a;" horiz-adv-x="667" 
d="M604 137h21c-67 -101 -147 -147 -260 -147c-147 0 -249 113 -249 277c0 91 31 176 90 242c85 98 213 159 331 159c21 0 46 -4 80 -12c46 -12 53 -13 65 -13c20 0 32 8 39 25h18l-54 -190h-17v24c0 77 -53 131 -130 131c-149 0 -285 -195 -285 -412
c0 -115 62 -185 164 -185c74 0 139 36 187 101zM557 842c34 0 62 -29 62 -63s-28 -62 -62 -62c-35 0 -63 28 -63 63s28 62 63 62z" />
    <glyph glyph-name="cdotaccent" unicode="&#x10b;" horiz-adv-x="444" 
d="M349 140l27 -18c-34 -50 -50 -69 -76 -91c-32 -28 -75 -44 -119 -44c-90 0 -152 62 -152 151c0 158 141 319 280 319c67 0 112 -36 112 -90c0 -40 -25 -68 -61 -68c-34 0 -58 22 -58 52c0 11 4 23 13 37c6 10 8 15 8 19c0 10 -10 17 -22 17c-30 0 -58 -24 -85 -70
c-35 -64 -60 -152 -60 -215c0 -53 29 -89 73 -89c42 0 73 23 120 90zM330 649c36 0 66 -30 66 -66c0 -34 -30 -63 -66 -63c-33 0 -63 30 -63 64c0 36 28 65 63 65z" />
    <glyph glyph-name="Ccaron" unicode="&#x10c;" horiz-adv-x="667" 
d="M702 678l-49 -232l-32 6c2 13 3 22 3 35c0 96 -50 156 -130 156c-41 0 -80 -15 -116 -45c-89 -75 -159 -246 -159 -390c0 -109 56 -174 150 -174c30 0 61 6 88 18c42 17 69 41 118 99l30 -21c-31 -44 -48 -61 -77 -84c-55 -42 -121 -64 -191 -64
c-163 0 -271 104 -271 259c0 239 182 437 401 437c41 0 85 -7 130 -21c15 -5 30 -8 37 -8c16 0 24 7 38 29h30zM677 891l-160 -172h-81l-88 172h50l90 -96l133 96h56z" />
    <glyph glyph-name="ccaron" unicode="&#x10d;" horiz-adv-x="444" 
d="M349 140l27 -18c-34 -50 -50 -69 -76 -91c-32 -28 -75 -44 -119 -44c-90 0 -152 62 -152 151c0 158 141 319 280 319c67 0 112 -36 112 -90c0 -40 -25 -68 -61 -68c-34 0 -58 22 -58 52c0 11 4 23 13 37c6 10 8 15 8 19c0 10 -10 17 -22 17c-30 0 -58 -24 -85 -70
c-35 -64 -60 -152 -60 -215c0 -53 29 -89 73 -89c42 0 73 23 120 90zM494 683l-159 -172h-82l-88 172h50l91 -96l133 96h55z" />
    <glyph glyph-name="Dcaron" unicode="&#x10e;" horiz-adv-x="722" 
d="M125 637v25h287c187 0 299 -102 299 -273c0 -223 -187 -389 -438 -389h-283v25c48 6 64 21 79 71l117 441c9 36 12 48 12 58c0 14 -4 23 -11 27c-6 4 -27 9 -62 15zM347 593l-124 -468s-1 -2 -1 -4c-8 -23 -12 -40 -12 -53c0 -24 16 -34 54 -34c94 0 163 36 216 112
c53 75 85 191 85 304c0 122 -54 181 -165 181c-31 0 -46 -10 -53 -38zM583 891l-160 -172h-81l-88 172h50l90 -96l133 96h56z" />
    <glyph glyph-name="dcaron" unicode="&#x10f;" horiz-adv-x="608" 
d="M561 396l-12 22c69 37 104 72 104 103c0 14 -6 22 -26 35c-27 19 -36 33 -36 58c0 37 27 64 63 64c45 0 76 -35 76 -87c0 -74 -66 -149 -169 -195zM455 130l22 -16c-54 -87 -98 -125 -147 -125c-37 0 -59 23 -59 62c0 14 2 29 10 66c-56 -94 -100 -130 -163 -130
c-61 0 -106 52 -106 124c0 157 146 346 267 346c29 0 47 -8 72 -32l17 67c23 85 28 107 28 116c0 18 -14 28 -41 28h-20l-1 27c99 8 148 15 207 29l-107 -401c-34 -125 -55 -210 -55 -221c0 -6 5 -12 11 -12c14 0 39 27 65 72zM299 415c-29 2 -65 -30 -96 -86
c-35 -64 -65 -154 -68 -208c-2 -35 16 -63 41 -63c29 0 57 25 84 73c34 63 76 191 76 235c0 28 -15 48 -37 49z" />
    <glyph glyph-name="Dcroat" unicode="&#x110;" horiz-adv-x="722" 
d="M156 369l45 168c9 36 12 48 12 58c0 14 -4 23 -11 27c-6 4 -27 9 -62 15v25h287c187 0 299 -102 299 -273c0 -223 -186 -389 -438 -389h-283v25c48 6 64 21 79 71l61 229h-101l12 44h100zM303 369h121l-12 -44h-121l-53 -200l-1 -4c-8 -22 -12 -41 -12 -53
c0 -24 16 -34 54 -34c94 0 164 36 216 111c53 77 85 191 85 305c0 122 -54 181 -165 181c-31 0 -46 -10 -53 -38z" />
    <glyph glyph-name="dcroat" unicode="&#x111;" 
d="M373 508h-137l8 30h137c3 13 6 25 7 29c8 29 9 34 9 41c0 18 -14 28 -41 28h-20l-1 27c99 8 148 15 207 29l-41 -154h65l-8 -30h-65l-58 -217c-34 -125 -55 -210 -55 -221c0 -6 5 -12 11 -12c14 0 39 27 65 72l22 -16c-54 -87 -98 -125 -147 -125c-37 0 -59 23 -59 62
c0 14 2 29 10 66c-56 -94 -100 -130 -163 -130c-61 0 -106 52 -106 124c0 156 147 346 267 346c28 0 47 -9 72 -32zM300 415c-29 2 -65 -30 -96 -86c-35 -64 -65 -154 -68 -208c-2 -35 16 -63 41 -63c29 0 57 25 84 73c34 63 76 191 76 235c0 28 -15 48 -37 49z" />
    <glyph glyph-name="Emacron" unicode="&#x112;" horiz-adv-x="667" 
d="M614 192l-58 -192h-548v25c51 8 63 19 79 71l119 445c6 22 10 46 10 59c0 11 -4 20 -10 24c-7 4 -28 9 -63 14v24h534l-41 -188l-27 5c0 62 -7 87 -30 110c-27 27 -81 42 -153 42c-40 0 -52 -9 -62 -44l-59 -221c131 -1 156 12 202 105l28 -4l-72 -270l-27 5
c2 19 3 30 3 43c0 69 -29 88 -143 90l-54 -207c-4 -14 -5 -19 -7 -25c-5 -19 -8 -30 -8 -36c0 -25 17 -35 61 -35c85 0 152 18 207 57c39 27 60 52 94 108zM604 824l-15 -69h-323l17 69h321z" />
    <glyph glyph-name="emacron" unicode="&#x113;" horiz-adv-x="444" 
d="M347 141l29 -17c-59 -99 -112 -137 -187 -137c-87 0 -151 62 -151 147c0 163 141 323 284 323c60 0 104 -36 104 -87c0 -34 -19 -71 -53 -103c-48 -45 -97 -66 -201 -87c-4 -19 -5 -30 -5 -47c0 -55 22 -83 64 -83s70 22 116 91zM179 212c57 18 81 32 108 60
c31 32 48 74 48 118c0 23 -9 34 -28 34c-48 0 -93 -75 -128 -212zM474 617l-15 -69h-323l17 69h321z" />
    <glyph glyph-name="Ebreve" unicode="&#x114;" horiz-adv-x="667" 
d="M614 192l-58 -192h-548v25c51 8 63 19 79 71l119 445c6 22 10 46 10 59c0 11 -4 20 -10 24c-7 4 -28 9 -63 14v24h534l-41 -188l-27 5c0 62 -7 87 -30 110c-27 27 -81 42 -153 42c-40 0 -52 -9 -62 -44l-59 -221c131 -1 156 12 202 105l28 -4l-72 -270l-27 5
c2 19 3 30 3 43c0 69 -29 88 -143 90l-54 -207c-4 -14 -5 -19 -7 -25c-5 -19 -8 -30 -8 -36c0 -25 17 -35 61 -35c85 0 152 18 207 57c39 27 60 52 94 108zM571 879h39c-17 -102 -80 -160 -176 -160c-97 0 -137 47 -137 160h43c6 -61 38 -89 101 -89c65 0 100 24 130 89z
" />
    <glyph glyph-name="ebreve" unicode="&#x115;" horiz-adv-x="444" 
d="M347 141l29 -17c-59 -99 -112 -137 -187 -137c-87 0 -151 62 -151 147c0 163 141 323 284 323c60 0 104 -36 104 -87c0 -34 -19 -71 -53 -103c-48 -45 -97 -66 -201 -87c-4 -19 -5 -30 -5 -47c0 -55 22 -83 64 -83s70 22 116 91zM179 212c57 18 81 32 108 60
c31 32 48 74 48 118c0 23 -9 34 -28 34c-48 0 -93 -75 -128 -212zM451 671h38c-17 -103 -80 -160 -175 -160c-62 0 -102 22 -122 65c-13 28 -14 33 -15 95h42c7 -61 39 -89 102 -89c64 0 99 24 130 89z" />
    <glyph glyph-name="Edotaccent" unicode="&#x116;" horiz-adv-x="667" 
d="M614 192l-58 -192h-548v25c51 8 63 19 79 71l119 445c6 22 10 46 10 59c0 11 -4 20 -10 24c-7 4 -28 9 -63 14v24h534l-41 -188l-27 5c0 62 -7 87 -30 110c-27 27 -81 42 -153 42c-40 0 -52 -9 -62 -44l-59 -221c131 -1 156 12 202 105l28 -4l-72 -270l-27 5
c2 19 3 30 3 43c0 69 -29 88 -143 90l-54 -207c-4 -14 -5 -19 -7 -25c-5 -19 -8 -30 -8 -36c0 -25 17 -35 61 -35c85 0 152 18 207 57c39 27 60 52 94 108zM447 856c36 0 66 -30 66 -66c0 -34 -30 -63 -66 -63c-33 0 -63 30 -63 64c0 36 28 65 63 65z" />
    <glyph glyph-name="edotaccent" unicode="&#x117;" horiz-adv-x="444" 
d="M347 141l29 -17c-59 -99 -112 -137 -187 -137c-87 0 -151 62 -151 147c0 163 141 323 284 323c60 0 104 -36 104 -87c0 -34 -19 -71 -53 -103c-48 -45 -97 -66 -201 -87c-4 -19 -5 -30 -5 -47c0 -55 22 -83 64 -83s70 22 116 91zM179 212c57 18 81 32 108 60
c31 32 48 74 48 118c0 23 -9 34 -28 34c-48 0 -93 -75 -128 -212zM310 649c36 0 66 -30 66 -66c0 -34 -30 -63 -66 -63c-33 0 -63 30 -63 64c0 36 28 65 63 65z" />
    <glyph glyph-name="Eogonek" unicode="&#x118;" horiz-adv-x="667" 
d="M614 192l-46 -152c-11 -38 -16 -62 -16 -81c0 -40 23 -62 62 -62c16 0 26 3 46 13c8 4 9 5 14 7l22 -14c-25 -46 -72 -74 -121 -74c-62 0 -106 34 -106 80c0 28 9 47 42 91h-503v25c51 8 63 19 79 71l119 445c6 22 10 46 10 59c0 11 -4 20 -10 24c-7 4 -28 9 -63 14v24
h534l-41 -188l-27 5c0 62 -7 87 -30 110c-27 27 -81 42 -153 42c-40 0 -52 -9 -62 -44l-59 -221c131 -1 156 12 202 105l28 -4l-72 -270l-27 5c2 19 3 30 3 43c0 69 -29 88 -143 90l-54 -207c-4 -14 -5 -19 -7 -25c-5 -19 -8 -30 -8 -36c0 -25 17 -35 61 -35
c85 0 152 18 207 57c39 27 60 52 94 108z" />
    <glyph glyph-name="eogonek" unicode="&#x119;" horiz-adv-x="444" 
d="M347 141l29 -17c-22 -36 -32 -51 -49 -72c-29 -37 -36 -54 -36 -88c0 -45 21 -67 62 -67c16 0 26 3 46 13l13 7l22 -14c-24 -46 -71 -74 -121 -74c-61 0 -105 34 -105 80c0 27 9 47 40 88c-23 -7 -39 -10 -59 -10c-87 0 -151 62 -151 147c0 163 141 323 284 323
c60 0 104 -36 104 -87c0 -34 -19 -71 -53 -103c-48 -45 -97 -66 -201 -87c-4 -19 -5 -30 -5 -47c0 -55 22 -83 64 -83s70 22 116 91zM179 212c57 18 81 32 108 60c31 32 48 74 48 118c0 23 -9 34 -28 34c-48 0 -93 -75 -128 -212z" />
    <glyph glyph-name="Ecaron" unicode="&#x11a;" horiz-adv-x="667" 
d="M614 192l-58 -192h-548v25c51 8 63 19 79 71l119 445c6 22 10 46 10 59c0 11 -4 20 -10 24c-7 4 -28 9 -63 14v24h534l-41 -188l-27 5c0 62 -7 87 -30 110c-27 27 -81 42 -153 42c-40 0 -52 -9 -62 -44l-59 -221c131 -1 156 12 202 105l28 -4l-72 -270l-27 5
c2 19 3 30 3 43c0 69 -29 88 -143 90l-54 -207c-4 -14 -5 -19 -7 -25c-5 -19 -8 -30 -8 -36c0 -25 17 -35 61 -35c85 0 152 18 207 57c39 27 60 52 94 108zM637 891l-159 -172h-81l-88 172h49l91 -96l133 96h55z" />
    <glyph glyph-name="ecaron" unicode="&#x11b;" horiz-adv-x="444" 
d="M347 141l29 -17c-59 -99 -112 -137 -187 -137c-87 0 -151 62 -151 147c0 163 141 323 284 323c60 0 104 -36 104 -87c0 -34 -19 -71 -53 -103c-48 -45 -97 -66 -201 -87c-4 -19 -5 -30 -5 -47c0 -55 22 -83 64 -83s70 22 116 91zM179 212c57 18 81 32 108 60
c31 32 48 74 48 118c0 23 -9 34 -28 34c-48 0 -93 -75 -128 -212zM492 683l-160 -172h-81l-88 172h50l90 -96l133 96h56z" />
    <glyph glyph-name="Gcircumflex" unicode="&#x11c;" horiz-adv-x="722" 
d="M624 716l-88 94l-129 -94h-56l157 172h80l86 -172h-50zM752 327v-26c-53 -4 -60 -11 -78 -81l-47 -179l-27 -13c-58 -27 -154 -46 -232 -46c-174 0 -294 109 -294 268c0 151 85 300 214 375c61 35 130 53 207 53c44 0 78 -6 122 -21c19 -7 27 -9 36 -9c20 0 31 8 41 30
h31l-49 -219l-29 4c-3 68 -10 96 -32 129c-21 32 -60 50 -107 50c-44 0 -87 -16 -124 -48c-89 -75 -155 -238 -155 -384c0 -124 57 -190 164 -190c38 0 78 13 92 30c4 5 4 5 26 81c26 90 30 108 30 135c0 9 -6 19 -12 23c-11 7 -19 8 -61 12v26h284z" />
    <glyph glyph-name="gcircumflex" unicode="&#x11d;" 
d="M507 425v-55h-66c4 -16 6 -27 6 -43c0 -98 -94 -175 -213 -175c-12 0 -19 1 -31 4c-8 3 -15 4 -20 4c-12 0 -27 -19 -27 -36c0 -15 19 -29 51 -38l52 -15c108 -30 148 -64 148 -124c0 -87 -97 -148 -235 -148c-115 0 -187 41 -187 105c0 24 10 48 27 61
c23 19 43 27 104 42c-44 15 -62 34 -62 66c0 36 14 50 95 96c-54 22 -80 58 -80 109c0 100 97 179 218 179c46 0 76 -9 110 -32h110zM149 -6c-7 1 -37 -17 -49 -28c-20 -20 -29 -36 -29 -55c0 -46 45 -78 111 -78c74 0 117 25 117 68c0 25 -13 43 -41 56
c-20 10 -97 36 -109 37zM286 427c-26 0 -47 -16 -65 -48c-21 -37 -37 -96 -37 -137c0 -38 15 -59 42 -59c31 0 55 22 77 67c16 36 28 84 28 119c0 34 -19 58 -45 58zM420 511l-88 94l-129 -94h-56l157 172h80l86 -172h-50z" />
    <glyph glyph-name="Gbreve" unicode="&#x11e;" horiz-adv-x="722" 
d="M733 327v-26c-53 -4 -60 -11 -78 -81l-47 -179l-27 -13c-58 -27 -154 -46 -232 -46c-174 0 -294 109 -294 268c0 151 85 300 214 375c61 35 130 53 207 53c44 0 78 -6 122 -21c19 -7 27 -9 36 -9c20 0 31 8 41 30h31l-49 -219l-29 4c-3 68 -10 96 -32 129
c-21 32 -60 50 -107 50c-44 0 -87 -16 -124 -48c-89 -75 -155 -238 -155 -384c0 -124 57 -190 164 -190c38 0 78 13 92 30c4 5 4 5 26 81c26 90 30 108 30 135c0 9 -6 19 -12 23c-11 7 -19 8 -61 12v26h284zM625 879h38c-16 -102 -80 -160 -175 -160c-97 0 -138 47 -137 160
h42c7 -61 39 -89 102 -89c65 0 99 24 130 89z" />
    <glyph glyph-name="gbreve" unicode="&#x11f;" 
d="M506 425v-55h-66c4 -16 6 -27 6 -43c0 -98 -94 -175 -213 -175c-12 0 -19 1 -31 4c-8 3 -15 4 -20 4c-12 0 -27 -19 -27 -36c0 -15 19 -29 51 -38l52 -15c108 -30 148 -64 148 -124c0 -87 -97 -148 -235 -148c-115 0 -187 41 -187 105c0 24 10 48 27 61
c23 19 43 27 104 42c-44 15 -62 34 -62 66c0 36 14 50 95 96c-54 22 -80 58 -80 109c0 100 97 179 218 179c46 0 76 -9 110 -32h110zM148 -6c-7 1 -37 -17 -49 -28c-20 -20 -29 -36 -29 -55c0 -46 45 -78 111 -78c74 0 117 25 117 68c0 25 -13 43 -41 56
c-20 10 -97 36 -109 37zM285 427c-26 0 -47 -16 -65 -48c-21 -37 -37 -96 -37 -137c0 -38 15 -59 42 -59c31 0 55 22 77 67c16 36 28 84 28 119c0 34 -19 58 -45 58zM441 671h38c-17 -103 -80 -160 -176 -160c-93 0 -137 48 -137 149c0 1 0 6 1 11h42c6 -61 38 -89 102 -89
s99 24 130 89z" />
    <glyph glyph-name="Gdotaccent" unicode="&#x120;" horiz-adv-x="722" 
d="M769 664l-54 -191h-21v12c0 90 -53 139 -150 139c-75 0 -132 -29 -185 -92c-62 -75 -104 -198 -104 -306c0 -46 11 -91 30 -127c24 -46 60 -68 108 -68c20 0 33 3 59 13l56 198c2 7 3 14 3 19c0 25 -17 41 -43 41h-20l7 22h258l-6 -22c-35 -3 -52 -20 -65 -65l-61 -215
c-84 -25 -130 -32 -199 -32c-154 0 -269 123 -269 288c0 215 187 384 424 384c45 0 94 -6 147 -18c10 -2 18 -3 23 -3c15 0 28 7 40 23h22zM562 845c34 0 62 -29 62 -63s-28 -62 -62 -62c-35 0 -63 28 -63 63s28 62 63 62z" />
    <glyph glyph-name="gdotaccent" unicode="&#x121;" 
d="M340 660c32 0 59 -29 59 -64s-27 -63 -60 -63s-60 29 -60 64s27 63 61 63zM511 425v-55h-66c4 -16 6 -27 6 -43c0 -98 -94 -175 -213 -175c-12 0 -19 1 -31 4c-8 3 -15 4 -20 4c-12 0 -27 -19 -27 -36c0 -15 19 -29 51 -38l52 -15c108 -30 148 -64 148 -124
c0 -87 -97 -148 -235 -148c-115 0 -187 41 -187 105c0 24 10 48 27 61c23 19 43 27 104 42c-44 15 -62 34 -62 66c0 36 14 50 95 96c-54 22 -80 58 -80 109c0 100 97 179 218 179c46 0 76 -9 110 -32h110zM153 -6c-7 1 -37 -17 -49 -28c-20 -20 -29 -36 -29 -55
c0 -46 45 -78 111 -78c74 0 117 25 117 68c0 25 -13 43 -41 56c-20 10 -97 36 -109 37zM290 427c-26 0 -47 -16 -65 -48c-21 -37 -37 -96 -37 -137c0 -38 15 -59 42 -59c31 0 55 22 77 67c16 36 28 84 28 119c0 34 -19 58 -45 58z" />
    <glyph glyph-name="Gcommaaccent" unicode="&#x122;" horiz-adv-x="722" 
d="M733 327v-26c-53 -4 -60 -11 -78 -81l-47 -179l-27 -13c-58 -27 -154 -46 -232 -46c-174 0 -294 109 -294 268c0 151 85 300 214 375c61 35 130 53 207 53c44 0 78 -6 122 -21c19 -7 27 -9 36 -9c20 0 31 8 41 30h31l-49 -219l-29 4c-3 68 -10 96 -32 129
c-21 32 -60 50 -107 50c-44 0 -87 -16 -124 -48c-89 -75 -155 -238 -155 -384c0 -124 57 -190 164 -190c38 0 78 13 92 30c4 5 4 5 26 81c26 90 30 108 30 135c0 9 -6 19 -12 23c-11 7 -19 8 -61 12v26h284zM206 -321l-12 21c70 38 105 72 105 104c0 13 -6 21 -27 35
c-27 18 -36 32 -36 57c0 37 27 64 63 64c45 0 76 -35 76 -88c0 -72 -66 -147 -169 -193z" />
    <glyph glyph-name="gcommaaccent" unicode="&#x123;" 
d="M506 425v-55h-66c4 -16 6 -27 6 -43c0 -98 -94 -175 -213 -175c-12 0 -19 1 -31 4c-8 3 -15 4 -20 4c-12 0 -27 -19 -27 -36c0 -15 19 -29 51 -38l52 -15c108 -30 148 -64 148 -124c0 -87 -97 -148 -235 -148c-115 0 -187 41 -187 105c0 24 10 48 27 61
c23 19 43 27 104 42c-44 15 -62 34 -62 66c0 36 14 50 95 96c-54 22 -80 58 -80 109c0 100 97 179 218 179c46 0 76 -9 110 -32h110zM148 -6c-7 1 -37 -17 -49 -28c-20 -20 -29 -36 -29 -55c0 -46 45 -78 111 -78c74 0 117 25 117 68c0 25 -13 43 -41 56
c-20 10 -97 36 -109 37zM285 427c-26 0 -47 -16 -65 -48c-21 -37 -37 -96 -37 -137c0 -38 15 -59 42 -59c31 0 55 22 77 67c16 36 28 84 28 119c0 34 -19 58 -45 58zM421 787l12 -22c-69 -36 -105 -72 -105 -103c0 -14 6 -22 27 -35c27 -19 36 -33 36 -57
c0 -38 -27 -65 -63 -65c-46 0 -76 35 -76 88c0 72 66 148 169 194z" />
    <glyph glyph-name="Hcircumflex" unicode="&#x124;" horiz-adv-x="778" 
d="M692 25v-25h-314v25c66 3 86 18 100 71l62 229h-237l-48 -179c-14 -50 -16 -61 -16 -78c0 -33 9 -38 72 -43v-25h-293v25c49 6 63 19 79 71l118 444c8 31 11 46 11 57c0 12 -4 22 -11 26c-6 4 -27 9 -62 14v25h314v-25c-64 -2 -84 -16 -100 -71l-52 -197h236l46 171
c5 20 10 48 10 60c0 11 -4 20 -10 23c-7 5 -18 8 -31 9l-32 5v25h295v-25c-51 -7 -64 -18 -80 -71l-105 -393c-21 -79 -24 -91 -24 -107c0 -29 17 -39 72 -41zM631 716l-88 94l-129 -94h-56l157 172h80l87 -172h-51z" />
    <glyph glyph-name="hcircumflex" unicode="&#x125;" horiz-adv-x="556" 
d="M505 141l22 -15c-65 -103 -104 -135 -165 -135c-38 0 -65 24 -65 58c0 41 10 80 59 228c0 0 4 11 11 33c4 12 9 28 11 33c2 8 4 16 4 22c0 11 -10 21 -22 21c-26 0 -58 -29 -99 -88c-49 -72 -69 -121 -119 -298h-120l149 561c6 22 8 33 8 41c0 23 -13 34 -41 34
c-6 0 -14 0 -22 -1v27c81 8 130 15 206 30l-104 -412c55 79 79 109 110 135c35 30 64 42 99 42c47 0 76 -28 76 -74c0 -19 -10 -59 -30 -121l-56 -176c-1 -3 -2 -10 -2 -12c0 -7 9 -16 17 -16c12 0 32 22 73 83zM386 739l-88 94l-129 -94h-56l157 172h80l86 -172h-50z" />
    <glyph glyph-name="Hbar" unicode="&#x126;" horiz-adv-x="778" 
d="M242 473h-66l12 43h66l18 63c2 7 3 14 3 19c0 25 -16 41 -43 42h-21l6 22h296l-6 -22h-38c-35 -3 -52 -21 -65 -66l-17 -58h230l18 63c2 7 3 14 3 19c0 25 -16 41 -43 42h-26l6 22h276l-6 -22h-12c-35 -3 -53 -21 -66 -66l-16 -58h67l-12 -43h-67l-108 -390
c-2 -6 -3 -12 -3 -18c0 -26 16 -42 42 -43h25l-6 -22h-298l6 22h36c34 3 53 21 65 66l65 233h-230l-66 -238c-2 -7 -3 -14 -3 -19c0 -25 17 -41 43 -42h28l-6 -22h-273l6 22h8c34 3 53 21 65 66zM376 473l-31 -111h230l31 111h-230z" />
    <glyph glyph-name="hbar" unicode="&#x127;" horiz-adv-x="556" 
d="M234 499h-58l11 39h59c2 7 3 12 4 16c3 9 4 17 4 23c0 16 -14 28 -41 36l4 16l179 26l-36 -117h109l-11 -39h-111l-70 -227c62 108 112 153 171 153c33 0 58 -29 58 -67c0 -14 -3 -32 -8 -48l-71 -235c-2 -5 -3 -10 -3 -15c0 -6 6 -13 12 -13c13 0 32 18 53 52l15 -8
c-51 -78 -80 -101 -129 -101c-38 0 -64 25 -64 61c0 12 3 27 10 48l64 201c3 10 6 26 6 32c0 8 -9 16 -18 16c-28 0 -76 -61 -125 -161l-57 -187h-111z" />
    <glyph glyph-name="Itilde" unicode="&#x128;" horiz-adv-x="389" 
d="M295 25v-25h-293v25c49 6 63 19 79 71l119 444c5 20 10 48 10 60c0 11 -4 20 -10 23c-7 5 -18 8 -31 9l-32 5v25h295v-25c-51 -6 -65 -18 -81 -71l-110 -416c-15 -57 -18 -69 -18 -85c0 -29 15 -37 72 -40zM443 847h40c-22 -83 -56 -118 -115 -118c-19 0 -30 3 -56 13
l-59 23c-13 5 -27 8 -37 8c-23 0 -35 -11 -48 -43h-39c13 72 57 117 113 117c25 0 56 -8 97 -26c26 -11 42 -16 53 -16c23 0 37 11 51 42z" />
    <glyph glyph-name="itilde" unicode="&#x129;" horiz-adv-x="278" 
d="M247 140l22 -14c-68 -105 -105 -135 -164 -135c-41 0 -69 25 -69 62c0 14 5 44 12 69l56 212c4 17 7 32 7 40c0 19 -16 29 -46 29h-13v27c79 6 147 15 200 27l-88 -331c-5 -18 -9 -42 -9 -51c0 -8 7 -15 15 -15c15 0 37 21 64 60zM332 648h41c-22 -83 -56 -118 -116 -118
c-19 0 -30 3 -56 13l-58 23c-14 5 -28 8 -38 8c-22 0 -34 -11 -47 -43h-40c13 72 57 117 114 117c25 0 56 -8 96 -26c26 -11 42 -16 54 -16c23 0 35 10 50 42z" />
    <glyph glyph-name="Imacron" unicode="&#x12a;" horiz-adv-x="389" 
d="M295 25v-25h-293v25c49 6 63 19 79 71l119 444c5 20 10 48 10 60c0 11 -4 20 -10 23c-7 5 -18 8 -31 9l-32 5v25h295v-25c-51 -6 -65 -18 -81 -71l-110 -416c-15 -57 -18 -69 -18 -85c0 -29 15 -37 72 -40zM485 824l-15 -69h-323l17 69h321z" />
    <glyph glyph-name="imacron" unicode="&#x12b;" horiz-adv-x="278" 
d="M246 140l22 -14c-68 -105 -105 -135 -164 -135c-41 0 -69 25 -69 62c0 14 5 42 12 69l56 212c5 17 7 31 7 40c0 19 -16 29 -46 29h-12v27c78 6 146 15 199 27l-88 -331c-3 -13 -8 -42 -8 -51c0 -8 7 -15 15 -15c15 0 36 20 63 60zM362 617l-15 -69h-323l16 69h322z" />
    <glyph glyph-name="Ibreve" unicode="&#x12c;" horiz-adv-x="389" 
d="M295 25v-25h-293v25c49 6 63 19 79 71l119 444c5 20 10 48 10 60c0 11 -4 20 -10 23c-7 5 -18 8 -31 9l-32 5v25h295v-25c-51 -6 -65 -18 -81 -71l-110 -416c-15 -57 -18 -69 -18 -85c0 -29 15 -37 72 -40zM460 886h38c-17 -103 -80 -160 -175 -160
c-62 0 -102 22 -122 65c-13 29 -13 29 -15 95h42c6 -60 39 -89 102 -89c65 0 99 24 130 89z" />
    <glyph glyph-name="ibreve" unicode="&#x12d;" horiz-adv-x="278" 
d="M264 123l17 -15c-23 -40 -36 -56 -58 -77c-34 -30 -55 -41 -82 -41c-43 0 -69 28 -69 74c0 17 3 36 9 57l65 213c5 16 9 37 9 45c0 14 -15 28 -31 28c-6 0 -12 -1 -19 -2l7 25l188 27l-109 -366c-5 -17 -5 -17 -5 -21c0 -7 5 -13 12 -13c13 0 32 19 66 66zM382 671h38
c-17 -103 -80 -160 -175 -160c-62 0 -102 22 -122 65c-12 27 -14 39 -15 95h42c7 -61 39 -89 102 -89c65 0 99 24 130 89z" />
    <glyph glyph-name="Iogonek" unicode="&#x12e;" horiz-adv-x="389" 
d="M295 25v-25c-13 -11 -19 -26 -19 -44c0 -36 24 -59 62 -59c16 0 26 3 46 13l13 7l22 -14c-24 -45 -71 -74 -120 -74c-62 0 -106 34 -106 80c0 28 8 44 42 91h-233v25c49 6 63 19 79 71l119 444c5 20 10 48 10 60c0 11 -4 20 -10 23c-7 5 -18 8 -31 9l-32 5v25h295v-25
c-51 -6 -65 -18 -81 -71l-110 -416c-15 -57 -18 -69 -18 -85c0 -29 15 -37 72 -40z" />
    <glyph glyph-name="iogonek" unicode="&#x12f;" horiz-adv-x="278" 
d="M246 140l22 -14c-26 -41 -36 -55 -60 -80c-35 -36 -43 -52 -43 -85c0 -42 22 -64 63 -64c15 0 26 3 45 13c8 4 9 5 14 7l22 -14c-24 -45 -71 -74 -121 -74c-62 0 -106 34 -106 80c0 26 8 45 36 83c-6 -1 -13 -1 -16 -1c-39 0 -67 26 -67 62c0 14 5 41 12 69l56 212
c5 18 8 33 8 40c0 19 -16 29 -46 29h-13v27c78 6 146 15 200 27l-89 -331c-3 -14 -8 -42 -8 -51c0 -8 7 -15 15 -15c15 0 37 21 63 60zM222 677c38 0 69 -31 69 -68c0 -36 -30 -65 -68 -65c-37 0 -66 30 -66 68c0 35 30 65 65 65z" />
    <glyph glyph-name="Idotaccent" unicode="&#x130;" horiz-adv-x="389" 
d="M295 25v-25h-293v25c49 6 63 19 79 71l119 444c5 20 10 48 10 60c0 11 -4 20 -10 23c-7 5 -18 8 -31 9l-32 5v25h295v-25c-51 -6 -65 -18 -81 -71l-110 -416c-15 -57 -18 -69 -18 -85c0 -29 15 -37 72 -40zM311 856c36 0 66 -30 66 -66c0 -34 -30 -63 -66 -63
c-33 0 -63 30 -63 64c0 36 28 65 63 65z" />
    <glyph glyph-name="dotlessi" unicode="&#x131;" horiz-adv-x="278" 
d="M246 140l22 -14c-68 -105 -105 -135 -164 -135c-41 0 -69 25 -69 62c0 14 5 41 12 69l56 212c5 18 8 33 8 40c0 19 -16 29 -46 29h-13v27c78 6 146 15 200 27l-89 -331c-3 -14 -8 -42 -8 -51c0 -8 7 -15 15 -15c15 0 36 20 63 60z" />
    <glyph glyph-name="IJ" unicode="&#x132;" horiz-adv-x="823" 
d="M340 22l-6 -22h-273l6 22h8c35 3 53 21 65 65l137 486c2 7 3 14 3 19c0 25 -17 41 -43 41h-21l6 22h270l-6 -22h-12c-35 -3 -52 -20 -65 -65l-137 -486c-2 -7 -3 -14 -3 -19c0 -25 17 -41 43 -41h28zM607 633l6 22h272l-6 -22h-7c-35 -3 -53 -20 -66 -65l-113 -403
c-30 -107 -105 -174 -196 -174c-62 0 -108 41 -108 97c0 43 27 75 63 75c32 0 53 -20 53 -50c0 -19 -3 -26 -20 -50c-3 -5 -5 -10 -5 -15c0 -10 9 -18 20 -18c16 0 27 14 36 46l140 497c2 7 3 14 3 19c0 24 -17 41 -43 41h-29z" />
    <glyph glyph-name="ij" unicode="&#x133;" horiz-adv-x="552" 
d="M273 123l17 -15c-23 -40 -36 -56 -58 -77c-34 -30 -55 -41 -82 -41c-43 0 -69 28 -69 74c0 17 3 36 9 57l65 213c5 16 9 37 9 45c0 14 -15 28 -31 28c-6 0 -12 -1 -19 -2l7 25l188 27l-109 -366c-5 -17 -5 -17 -5 -21c0 -7 5 -13 12 -13c13 0 32 19 66 66zM278 696
c38 0 69 -34 69 -74c0 -41 -31 -74 -69 -74c-39 0 -70 33 -70 75c0 41 31 73 70 73zM560 457l-96 -386c-22 -87 -53 -154 -91 -193c-30 -32 -80 -54 -121 -54s-72 22 -72 52c0 27 21 48 48 48c21 0 39 -16 39 -34c0 -7 -3 -14 -10 -23c-4 -5 -7 -10 -7 -14
c0 -5 7 -11 13 -11c24 0 45 46 74 168l77 313c6 22 7 29 7 39c0 16 -9 29 -25 35c-3 1 -12 1 -28 2l6 23zM515 691c36 0 66 -32 66 -70c0 -39 -30 -70 -66 -70c-37 0 -67 32 -67 71c0 38 30 69 67 69z" />
    <glyph glyph-name="Jcircumflex" unicode="&#x134;" 
d="M549 662l1 -25c-49 -6 -64 -19 -80 -71l-124 -474c-34 -130 -99 -190 -206 -190c-88 0 -151 42 -151 100c0 39 27 69 63 69c35 0 63 -27 63 -62c0 -14 -2 -20 -13 -32c-8 -9 -10 -14 -10 -21c0 -13 8 -18 27 -18c36 0 50 28 88 175l110 427c7 25 11 48 11 59
c0 10 -4 20 -11 24c-6 4 -26 8 -61 14l-1 25h294zM533 739l-88 94l-129 -94h-57l158 172h80l86 -172h-50z" />
    <glyph glyph-name="jcircumflex" unicode="&#x135;" horiz-adv-x="278" 
d="M62 403v27c110 9 146 14 205 27l-110 -433c-39 -153 -107 -229 -206 -229c-62 0 -104 31 -104 77c0 28 22 52 48 52c27 0 49 -22 49 -49c0 -10 -2 -15 -10 -27c-4 -6 -5 -8 -5 -10c0 -5 13 -12 23 -12c29 0 46 31 71 129l89 352c7 28 11 52 11 65c0 22 -12 31 -41 31h-20
zM297 511l-87 94l-129 -94h-57l158 172h80l86 -172h-51z" />
    <glyph glyph-name="Kcommaaccent" unicode="&#x136;" horiz-adv-x="667" 
d="M422 394l157 -335c11 -23 25 -31 62 -34l1 -25h-278v25c12 1 23 2 27 3c27 2 38 9 38 23c0 12 -3 20 -14 43l-113 239l-65 -246c-1 -5 -2 -12 -2 -16c0 -33 13 -43 66 -46v-25h-286v25c49 5 64 19 79 71l118 444c8 30 11 46 11 57c0 12 -4 22 -11 26c-6 4 -27 9 -62 14
v25h307v-25c-58 -4 -78 -19 -93 -71l-60 -225c94 79 117 100 194 173c56 52 76 78 76 96s-6 21 -56 27v25h209v-25c-42 -5 -50 -9 -93 -47zM188 -321l-12 21c70 37 105 72 105 104c0 13 -7 22 -27 35c-27 18 -36 32 -36 57c0 37 27 64 63 64c45 0 76 -35 76 -88
c0 -72 -66 -148 -169 -193z" />
    <glyph glyph-name="kcommaaccent" unicode="&#x137;" 
d="M181 186l-48 -186h-121l151 561c6 21 8 32 8 41c0 23 -13 34 -41 34c-4 0 -14 0 -22 -1v27c77 8 129 15 206 29l-119 -454c123 97 161 134 161 159c0 16 -12 22 -50 23l-1 25h205v-25c-45 -5 -65 -17 -133 -75l-62 -54c39 -192 51 -228 79 -228c19 0 34 16 61 64l21 -11
c-48 -91 -84 -123 -133 -123c-62 0 -91 53 -123 221zM95 -321l-11 21c70 38 104 72 104 104c0 13 -6 22 -26 35c-28 18 -37 32 -37 57c0 37 27 64 63 64c45 0 76 -35 76 -88c0 -72 -66 -147 -169 -193z" />
    <glyph glyph-name="kgreenlandic" unicode="&#x138;" 
d="M184 172l-46 -172h-114l101 345c4 12 6 25 6 34c0 23 -13 34 -41 34l6 23l177 26l-77 -245l148 131c18 16 27 32 27 46c0 20 -11 27 -50 31l5 20h196l-5 -20c-27 1 -65 -20 -107 -58l-69 -60l43 -184c9 -36 17 -51 29 -51c16 0 27 12 45 51h26
c-37 -83 -83 -128 -130 -128c-35 0 -56 20 -65 62l-40 171z" />
    <glyph glyph-name="Lacute" unicode="&#x139;" horiz-adv-x="611" 
d="M618 192l-58 -192h-547v25c49 7 64 20 79 71l119 444c5 20 10 49 10 61c0 10 -4 19 -10 22c-7 5 -18 8 -31 9l-32 5v25h314v-25c-65 -3 -84 -17 -100 -71l-125 -473c-3 -11 -5 -22 -5 -31c-1 -20 20 -30 63 -30c82 0 152 20 205 57c39 28 60 52 94 108zM313 719h-48
l120 130c34 37 51 49 70 49c25 0 47 -21 47 -47c0 -18 -8 -29 -39 -46z" />
    <glyph glyph-name="lacute" unicode="&#x13a;" horiz-adv-x="278" 
d="M246 140l22 -14c-68 -105 -105 -135 -166 -135c-40 0 -67 24 -67 59c0 24 12 81 33 157l72 261c22 78 33 126 33 140c0 18 -15 28 -42 28c-5 0 -10 0 -21 -1v27c74 7 122 13 207 30l-141 -518c-13 -49 -21 -85 -21 -99c0 -8 7 -15 15 -15c17 0 37 21 76 80zM228 719h-48
l120 130c34 37 51 49 70 49c25 0 47 -21 47 -46c0 -19 -8 -29 -39 -47z" />
    <glyph glyph-name="Lcommaaccent" unicode="&#x13b;" horiz-adv-x="611" 
d="M618 192l-58 -192h-547v25c49 7 64 20 79 71l119 444c5 20 10 49 10 61c0 10 -4 19 -10 22c-7 5 -18 8 -31 9l-32 5v25h314v-25c-65 -3 -84 -17 -100 -71l-125 -473c-3 -11 -5 -22 -5 -31c-1 -20 20 -30 63 -30c82 0 152 20 205 57c39 28 60 52 94 108zM133 -321l-12 21
c69 38 104 72 104 104c0 13 -6 21 -26 35c-27 18 -36 32 -36 57c0 37 27 64 63 64c45 0 76 -35 76 -88c0 -72 -66 -147 -169 -193z" />
    <glyph glyph-name="lcommaaccent" unicode="&#x13c;" horiz-adv-x="278" 
d="M247 140l22 -14c-69 -105 -106 -135 -167 -135c-40 0 -67 24 -67 59c0 23 12 81 33 157l72 261c21 75 33 126 33 140c0 18 -15 28 -42 28c-5 0 -10 0 -21 -1v27c74 7 122 13 207 30l-141 -518c-14 -52 -21 -85 -21 -99c0 -8 7 -15 15 -15c17 0 38 21 77 80zM-33 -321
l-12 21c70 38 104 72 104 104c0 13 -6 21 -26 35c-27 18 -36 32 -36 57c0 37 27 64 63 64c45 0 76 -35 76 -88c0 -72 -66 -148 -169 -193z" />
    <glyph glyph-name="Lcaron" unicode="&#x13d;" horiz-adv-x="611" 
d="M618 192l-58 -192h-547v25c49 7 64 20 79 71l119 444c5 20 10 49 10 61c0 10 -4 19 -10 22c-7 5 -18 8 -31 9l-32 5v25h314v-25c-65 -3 -84 -17 -100 -71l-125 -473c-3 -11 -5 -22 -5 -31c-1 -20 20 -30 63 -30c82 0 152 20 205 57c39 28 60 52 94 108zM483 396l-11 22
c68 36 104 72 104 103c0 14 -6 22 -27 35c-27 19 -36 33 -36 58c0 37 27 64 63 64c45 0 76 -35 76 -87c0 -74 -66 -149 -169 -195z" />
    <glyph glyph-name="lcaron" unicode="&#x13e;" horiz-adv-x="382" 
d="M338 396l-11 22c69 37 104 72 104 103c0 14 -6 22 -27 35c-27 19 -36 33 -36 58c0 37 27 64 63 64c45 0 76 -35 76 -87c0 -74 -66 -149 -169 -195zM247 140l22 -14c-68 -105 -105 -135 -166 -135c-40 0 -67 24 -67 59c0 24 12 81 33 157l72 261c22 78 33 126 33 140
c0 18 -15 28 -42 28c-5 0 -10 0 -21 -1v27c74 7 122 13 207 30l-141 -518c-13 -49 -21 -85 -21 -99c0 -8 7 -15 15 -15c17 0 37 21 76 80z" />
    <glyph glyph-name="Ldot" unicode="&#x13f;" horiz-adv-x="611" 
d="M618 192l-58 -192h-547v25c49 7 64 20 79 71l119 444c5 20 10 49 10 61c0 10 -4 19 -10 22c-7 5 -18 8 -31 9l-32 5v25h314v-25c-65 -3 -84 -17 -100 -71l-125 -473c-3 -11 -5 -22 -5 -31c-1 -20 20 -30 63 -30c82 0 152 20 205 57c39 28 60 52 94 108zM487 403
c40 0 73 -33 73 -74c0 -40 -32 -72 -73 -72c-42 0 -73 31 -73 73s32 73 73 73z" />
    <glyph glyph-name="ldot" unicode="&#x140;" horiz-adv-x="375" 
d="M346 403c40 0 73 -33 73 -74c0 -40 -32 -72 -73 -72c-42 0 -73 31 -73 73s32 73 73 73zM246 140l22 -14c-68 -105 -105 -135 -166 -135c-40 0 -67 24 -67 59c0 24 12 81 33 157l72 261c22 78 33 126 33 140c0 18 -15 28 -42 28c-5 0 -10 0 -21 -1v27c74 7 122 13 207 30
l-141 -518c-13 -49 -21 -85 -21 -99c0 -8 7 -15 15 -15c17 0 37 21 76 80z" />
    <glyph glyph-name="Lslash" unicode="&#x141;" horiz-adv-x="611" 
d="M618 192l-58 -192h-547v25c49 7 63 19 79 71l48 179l-102 -55l21 69l99 53l53 198c5 20 10 49 10 61c0 10 -4 19 -10 22c-7 5 -18 8 -31 9l-32 5v25h314v-25c-65 -3 -84 -17 -100 -71l-42 -160l148 80l-21 -69l-146 -82l-64 -242c-3 -11 -5 -25 -5 -31
c0 -21 19 -30 63 -30c82 0 152 20 205 57c39 28 60 52 94 108z" />
    <glyph glyph-name="lslash" unicode="&#x142;" horiz-adv-x="278" 
d="M246 140l22 -14c-68 -105 -105 -135 -166 -135c-42 0 -67 23 -67 61c0 28 10 72 60 254l-76 -43l18 70l77 42c40 146 58 217 58 233c0 18 -15 28 -41 28c-5 0 -10 0 -21 -1v27c74 7 122 14 206 30l-72 -269l85 46l-19 -67l-85 -47l-49 -181c-13 -48 -21 -85 -21 -99
c0 -8 7 -15 15 -15c17 0 37 21 76 80z" />
    <glyph glyph-name="Nacute" unicode="&#x143;" horiz-adv-x="722" 
d="M335 662l215 -460l78 284c11 39 17 74 17 93c0 38 -21 53 -79 58v25h206l1 -25c-57 -13 -63 -21 -101 -151l-138 -501h-28l-257 543l-96 -352c-12 -43 -18 -74 -18 -92c0 -39 21 -54 80 -59v-25h-206v25c54 11 61 22 99 151l117 407c-20 43 -29 49 -83 54v25h193z
M462 719h-49l120 130c35 37 52 49 70 49c25 0 47 -21 47 -46c0 -19 -9 -30 -38 -47z" />
    <glyph glyph-name="nacute" unicode="&#x144;" horiz-adv-x="556" 
d="M500 134l22 -13c-57 -97 -97 -130 -156 -130c-43 0 -68 22 -68 60c0 26 12 81 27 129l53 164c3 10 5 17 5 21c0 11 -12 21 -25 21c-18 0 -48 -22 -68 -48c-61 -84 -96 -168 -141 -338h-120c27 101 36 135 55 202c30 108 44 163 44 176c0 19 -12 24 -54 25v27
c56 2 134 12 198 26l-62 -196c66 98 84 122 120 157c27 25 63 40 99 40c47 0 73 -26 73 -74c0 -25 -9 -66 -25 -114l-35 -107c-16 -48 -24 -77 -24 -87s6 -17 14 -17c16 0 28 13 68 76zM346 511h-48l120 130c35 37 51 49 68 49c26 0 48 -21 48 -47c0 -18 -9 -29 -38 -46z
" />
    <glyph glyph-name="Ncommaaccent" unicode="&#x145;" horiz-adv-x="722" 
d="M335 662l215 -460l78 284c11 39 17 74 17 93c0 38 -21 53 -79 58v25h206l1 -25c-57 -13 -63 -21 -101 -151l-138 -501h-28l-257 543l-96 -352c-12 -43 -18 -74 -18 -92c0 -39 21 -54 80 -59v-25h-206v25c54 11 61 22 99 151l117 407c-20 43 -29 49 -83 54v25h193z
M206 -321l-11 21c70 38 104 72 104 104c0 13 -7 21 -27 35c-27 18 -36 32 -36 57c0 37 27 64 63 64c45 0 76 -35 76 -88c0 -72 -66 -148 -169 -193z" />
    <glyph glyph-name="ncommaaccent" unicode="&#x146;" horiz-adv-x="556" 
d="M500 134l22 -13c-57 -97 -97 -130 -156 -130c-43 0 -68 22 -68 60c0 26 12 81 27 129l53 164c3 10 5 17 5 21c0 11 -12 21 -25 21c-18 0 -48 -22 -68 -48c-61 -84 -96 -168 -141 -338h-120c27 101 36 135 55 202c30 108 44 163 44 176c0 19 -12 24 -54 25v27
c56 2 134 12 198 26l-62 -196c66 98 84 122 120 157c27 25 63 40 99 40c47 0 73 -26 73 -74c0 -25 -9 -66 -25 -114l-35 -107c-16 -48 -24 -77 -24 -87s6 -17 14 -17c16 0 28 13 68 76zM123 -321l-12 21c71 38 105 72 105 104c0 13 -7 21 -27 35c-27 18 -36 32 -36 57
c0 37 27 64 63 64c45 0 76 -35 76 -88c0 -72 -66 -148 -169 -193z" />
    <glyph glyph-name="Ncaron" unicode="&#x147;" horiz-adv-x="722" 
d="M335 662l215 -460l78 284c11 39 17 74 17 93c0 38 -21 53 -79 58v25h206l1 -25c-57 -13 -63 -21 -101 -151l-138 -501h-28l-257 543l-96 -352c-12 -43 -18 -74 -18 -92c0 -39 21 -54 80 -59v-25h-206v25c54 11 61 22 99 151l117 407c-20 43 -29 49 -83 54v25h193z
M670 891l-160 -172h-81l-88 172h50l90 -96l133 96h56z" />
    <glyph glyph-name="ncaron" unicode="&#x148;" horiz-adv-x="556" 
d="M500 134l22 -13c-57 -97 -97 -130 -156 -130c-43 0 -68 22 -68 60c0 26 12 81 27 129l53 164c3 10 5 17 5 21c0 11 -12 21 -25 21c-18 0 -48 -22 -68 -48c-61 -84 -96 -168 -141 -338h-120c27 101 36 135 55 202c30 108 44 163 44 176c0 19 -12 24 -54 25v27
c56 2 134 12 198 26l-62 -196c66 98 84 122 120 157c27 25 63 40 99 40c47 0 73 -26 73 -74c0 -25 -9 -66 -25 -114l-35 -107c-16 -48 -24 -77 -24 -87s6 -17 14 -17c16 0 28 13 68 76zM539 683l-159 -172h-81l-88 172h49l91 -96l133 96h55z" />
    <glyph glyph-name="napostrophe" unicode="&#x149;" horiz-adv-x="719" 
d="M116 452l-9 23c60 22 92 49 92 77c0 10 -4 16 -20 35c-15 17 -23 36 -23 54c0 36 29 65 64 65c40 0 69 -33 69 -80c0 -41 -21 -81 -60 -115c-29 -24 -56 -39 -113 -59zM663 134l22 -13c-57 -96 -98 -130 -156 -130c-43 0 -68 22 -68 60c0 26 12 83 27 129l53 164
c3 10 5 18 5 21c0 11 -12 21 -25 21c-18 0 -48 -22 -68 -48c-61 -83 -96 -167 -142 -338h-119c26 100 35 135 54 202c30 109 44 163 44 176c0 19 -12 24 -53 25v27c56 2 134 12 198 26l-63 -196c66 98 84 122 121 157c27 25 63 40 99 40c47 0 73 -26 73 -74
c0 -24 -9 -65 -25 -114l-36 -107c-14 -44 -23 -77 -23 -87s6 -17 14 -17c16 0 28 13 68 76z" />
    <glyph glyph-name="Eng" unicode="&#x14a;" horiz-adv-x="784" 
d="M89 0l137 516c18 62 18 62 18 72c0 20 -11 25 -54 26v27c69 2 154 12 218 26l-53 -192c47 88 76 124 124 153c41 26 98 41 150 41c73 0 125 -46 125 -110c0 -28 -6 -67 -18 -111l-110 -424c-19 -72 -43 -126 -74 -164c-37 -46 -80 -65 -147 -65c-83 0 -128 27 -128 77
c0 31 23 58 51 58c29 0 52 -25 52 -54c0 -11 -2 -17 -9 -28c-4 -7 -5 -8 -5 -10c0 -5 13 -12 23 -12c28 0 44 29 70 129l138 536c4 19 7 37 7 53c0 37 -26 60 -67 60c-60 0 -107 -35 -148 -110c-56 -102 -92 -215 -160 -494h-140z" />
    <glyph glyph-name="eng" unicode="&#x14b;" horiz-adv-x="541" 
d="M271 456l-53 -192c77 139 135 193 209 193c46 0 74 -26 74 -68c0 -10 0 -12 -11 -65l-14 -55l-63 -245c-15 -59 -43 -123 -74 -165c-29 -40 -78 -64 -133 -64c-61 0 -103 32 -103 77c0 28 22 52 48 52c27 0 49 -22 49 -49c0 -10 -3 -17 -10 -27c-4 -6 -5 -7 -5 -10
c0 -6 13 -12 24 -12c28 0 46 32 70 129l98 389c2 7 3 16 3 24c0 10 -10 18 -23 18c-28 0 -71 -42 -105 -103c-42 -75 -69 -148 -104 -283h-120c27 101 36 135 55 202c30 108 44 163 44 176c0 19 -12 24 -54 25v27c56 2 134 12 198 26z" />
    <glyph glyph-name="Omacron" unicode="&#x14c;" horiz-adv-x="722" 
d="M476 678c138 0 241 -98 241 -230c0 -145 -80 -301 -202 -391c-66 -49 -141 -75 -219 -75c-141 0 -235 96 -235 238c0 137 84 296 202 383c67 49 141 75 213 75zM473 644c-64 0 -116 -40 -166 -130c-54 -95 -103 -274 -103 -377c0 -75 39 -121 102 -121c53 0 97 30 143 96
c66 96 125 292 125 413c0 71 -41 119 -101 119zM652 824l-16 -69h-322l16 69h322z" />
    <glyph glyph-name="omacron" unicode="&#x14d;" 
d="M313 457c91 0 156 -63 156 -150c0 -168 -133 -320 -280 -320c-91 0 -158 63 -158 148c0 166 137 322 282 322zM304 428c-31 0 -60 -22 -85 -68c-35 -61 -70 -204 -70 -282c0 -39 19 -62 49 -62c35 0 64 28 92 90c32 70 61 196 61 264c0 36 -18 58 -47 58zM494 617
l-15 -69h-323l16 69h322z" />
    <glyph glyph-name="Obreve" unicode="&#x14e;" horiz-adv-x="722" 
d="M476 678c138 0 241 -98 241 -230c0 -145 -80 -301 -202 -391c-66 -49 -141 -75 -219 -75c-141 0 -235 96 -235 238c0 137 84 296 202 383c67 49 141 75 213 75zM473 644c-64 0 -116 -40 -166 -130c-54 -95 -103 -274 -103 -377c0 -75 39 -121 102 -121c53 0 97 30 143 96
c66 96 125 292 125 413c0 71 -41 119 -101 119zM651 886h39c-17 -103 -81 -160 -176 -160c-93 0 -137 48 -137 149v11h43c5 -60 38 -89 101 -89c65 0 99 24 130 89z" />
    <glyph glyph-name="obreve" unicode="&#x14f;" 
d="M313 457c91 0 156 -63 156 -150c0 -168 -133 -320 -280 -320c-91 0 -158 63 -158 148c0 166 137 322 282 322zM304 428c-31 0 -60 -22 -85 -68c-35 -61 -70 -204 -70 -282c0 -39 19 -62 49 -62c35 0 64 28 92 90c32 70 61 196 61 264c0 36 -18 58 -47 58zM471 671h39
c-17 -103 -80 -160 -176 -160c-93 0 -137 48 -137 149v11h43c6 -61 38 -89 102 -89s99 24 129 89z" />
    <glyph glyph-name="Ohungarumlaut" unicode="&#x150;" horiz-adv-x="722" 
d="M476 678c138 0 241 -98 241 -230c0 -145 -80 -301 -202 -391c-66 -49 -141 -75 -219 -75c-141 0 -235 96 -235 238c0 137 84 296 202 383c67 49 141 75 213 75zM473 644c-64 0 -116 -40 -166 -130c-54 -95 -103 -274 -103 -377c0 -75 39 -121 102 -121c53 0 97 30 143 96
c66 96 125 292 125 413c0 71 -41 119 -101 119zM364 719h-48l120 130c34 37 51 49 70 49c25 0 47 -21 47 -47c0 -19 -8 -28 -39 -46zM551 719h-48l120 130c34 37 51 49 70 49c25 0 47 -21 47 -47c0 -19 -8 -28 -39 -46z" />
    <glyph glyph-name="ohungarumlaut" unicode="&#x151;" 
d="M313 457c91 0 156 -63 156 -150c0 -168 -133 -320 -280 -320c-91 0 -158 63 -158 148c0 166 137 322 282 322zM304 428c-31 0 -60 -22 -85 -68c-35 -61 -70 -204 -70 -282c0 -39 19 -62 49 -62c35 0 64 28 92 90c32 70 61 196 61 264c0 36 -18 58 -47 58zM231 511h-48
l120 130c34 37 51 49 69 49c26 0 48 -21 48 -46c0 -19 -8 -30 -39 -47zM418 511h-48l120 130c34 37 51 49 69 49c26 0 48 -21 48 -46c0 -19 -9 -30 -39 -47z" />
    <glyph glyph-name="OE" unicode="&#x152;" horiz-adv-x="944" 
d="M969 662l-44 -189l-25 6c1 13 1 24 1 35c0 78 -54 116 -164 116c-34 0 -40 -6 -52 -47l-59 -217h21h4c89 -1 130 25 162 102l26 -3l-69 -269l-27 5c1 8 1 15 2 18c1 16 2 31 2 40c0 20 -7 36 -20 48c-15 13 -35 18 -109 25l-62 -242c-3 -9 -4 -18 -4 -25
c0 -24 21 -34 72 -34c116 0 186 45 254 166l26 -5l-58 -192h-293h-27c-11 -1 -19 -1 -24 -1h-22l-152 -7h-19c-80 0 -136 17 -179 53c-46 40 -72 103 -72 177c0 140 74 286 190 373c73 55 138 75 243 75c17 0 26 0 56 -3c45 -3 75 -5 90 -5h332zM424 121l104 387
c8 27 12 52 12 67c0 41 -25 63 -72 63c-60 0 -109 -32 -156 -99c-62 -90 -114 -265 -114 -382c0 -81 47 -133 121 -133c57 0 85 26 105 97z" />
    <glyph glyph-name="oe" unicode="&#x153;" horiz-adv-x="722" 
d="M620 138l28 -15c-26 -49 -42 -71 -66 -92c-34 -29 -75 -44 -120 -44s-77 15 -116 57c-42 -39 -88 -57 -146 -57c-94 0 -159 63 -159 157c0 50 15 102 44 153c57 100 149 160 245 160c53 0 84 -16 115 -61c58 46 93 61 145 61c68 0 111 -34 111 -90
c0 -45 -30 -89 -85 -125c-44 -28 -70 -37 -171 -60c-7 -28 -8 -39 -8 -54c0 -52 23 -79 67 -79c46 0 72 20 116 89zM451 216c75 21 110 45 139 91c15 24 24 56 24 80c0 25 -14 40 -37 40c-13 0 -26 -6 -35 -16c-31 -35 -41 -55 -91 -195zM313 428c-47 0 -82 -47 -121 -166
c-23 -68 -34 -122 -34 -165c0 -52 19 -81 53 -81c36 0 65 28 95 92c29 62 62 194 62 246c0 49 -19 74 -55 74z" />
    <glyph glyph-name="Racute" unicode="&#x154;" horiz-adv-x="667" 
d="M142 637v25h273c157 0 235 -47 235 -143c0 -54 -28 -104 -79 -138c-30 -21 -56 -31 -111 -42l84 -243c22 -58 32 -66 88 -71v-25h-200l-108 327h-29l-53 -191c-10 -34 -14 -55 -14 -69c0 -30 14 -38 72 -42v-25h-293v25c49 6 63 19 79 71l119 444c5 19 10 48 10 60
c0 11 -4 19 -10 23c-7 4 -18 7 -31 9zM362 586l-58 -227c62 1 100 8 125 24c43 28 71 87 71 152c0 61 -33 95 -90 95c-30 0 -39 -8 -48 -44zM404 719h-49l120 130c35 37 52 49 70 49c25 0 47 -21 47 -47c0 -18 -9 -29 -38 -46z" />
    <glyph glyph-name="racute" unicode="&#x155;" horiz-adv-x="389" 
d="M58 403v27c120 10 139 12 198 27l-64 -206c77 156 118 206 168 206c34 0 57 -26 57 -66s-25 -71 -57 -71c-17 0 -30 8 -44 25c-7 8 -13 12 -17 12c-17 0 -51 -46 -80 -106c-17 -36 -23 -52 -41 -107c-4 -14 -9 -28 -13 -41c-7 -23 -18 -58 -32 -103h-120
c71 244 99 352 99 378c0 19 -9 23 -54 25zM256 511h-48l120 130c34 37 51 49 69 49c26 0 48 -21 48 -46c0 -19 -9 -30 -39 -47z" />
    <glyph glyph-name="Rcommaaccent" unicode="&#x156;" horiz-adv-x="667" 
d="M142 637v25h273c157 0 235 -47 235 -143c0 -54 -28 -104 -79 -138c-30 -21 -56 -31 -111 -42l84 -243c22 -58 32 -66 88 -71v-25h-200l-108 327h-29l-53 -191c-10 -34 -14 -55 -14 -69c0 -30 14 -38 72 -42v-25h-293v25c49 6 63 19 79 71l119 444c5 19 10 48 10 60
c0 11 -4 19 -10 23c-7 4 -18 7 -31 9zM362 586l-58 -227c62 1 100 8 125 24c43 28 71 87 71 152c0 61 -33 95 -90 95c-30 0 -39 -8 -48 -44zM191 -321l-12 21c70 38 105 72 105 104c0 13 -7 21 -27 35c-27 18 -36 32 -36 57c0 37 27 64 63 64c45 0 76 -35 76 -88
c0 -72 -66 -148 -169 -193z" />
    <glyph glyph-name="rcommaaccent" unicode="&#x157;" horiz-adv-x="389" 
d="M59 403v27c119 10 138 12 197 27l-63 -206c77 156 117 206 167 206c34 0 57 -26 57 -66s-25 -71 -57 -71c-17 0 -30 7 -44 25c-7 8 -13 12 -17 12c-16 0 -50 -45 -80 -106c-16 -32 -23 -52 -40 -107c-5 -14 -9 -28 -13 -41c-7 -23 -18 -58 -33 -103h-119
c69 243 98 353 98 378c0 19 -9 23 -53 25zM-37 -321l-12 21c70 38 104 72 104 104c0 13 -6 21 -26 35c-27 18 -36 32 -36 57c0 37 27 64 63 64c45 0 76 -35 76 -88c0 -72 -66 -148 -169 -193z" />
    <glyph glyph-name="Rcaron" unicode="&#x158;" horiz-adv-x="667" 
d="M142 637v25h273c157 0 235 -47 235 -143c0 -54 -28 -104 -79 -138c-30 -21 -56 -31 -111 -42l84 -243c22 -58 32 -66 88 -71v-25h-200l-108 327h-29l-53 -191c-10 -34 -14 -55 -14 -69c0 -30 14 -38 72 -42v-25h-293v25c49 6 63 19 79 71l119 444c5 19 10 48 10 60
c0 11 -4 19 -10 23c-7 4 -18 7 -31 9zM362 586l-58 -227c62 1 100 8 125 24c43 28 71 87 71 152c0 61 -33 95 -90 95c-30 0 -39 -8 -48 -44zM603 891l-160 -172h-81l-88 172h50l90 -96l133 96h56z" />
    <glyph glyph-name="rcaron" unicode="&#x159;" horiz-adv-x="389" 
d="M58 403v27c120 10 139 12 198 27l-64 -206c77 156 118 206 168 206c34 0 57 -26 57 -66s-25 -71 -57 -71c-17 0 -30 8 -44 25c-7 8 -13 12 -17 12c-17 0 -51 -46 -80 -106c-17 -36 -23 -52 -41 -107c-4 -14 -9 -28 -13 -41c-7 -23 -18 -58 -32 -103h-120
c71 244 99 352 99 378c0 19 -9 23 -54 25zM464 683l-159 -172h-81l-88 172h49l91 -96l133 96h55z" />
    <glyph glyph-name="Sacute" unicode="&#x15a;" horiz-adv-x="556" 
d="M37 -18l34 222l29 -2c5 -60 12 -89 31 -120c26 -42 70 -66 122 -66c49 0 83 19 105 57c12 21 19 45 19 67c0 46 -34 93 -112 152c-57 43 -97 87 -119 129c-8 17 -13 40 -13 66c0 109 85 191 198 191c28 0 56 -5 97 -19c25 -8 41 -11 51 -11c20 0 34 8 43 26h30l-39 -199
l-27 4c-13 116 -52 164 -131 164c-63 0 -103 -40 -103 -103c0 -45 15 -67 77 -114c122 -91 168 -158 168 -245c0 -122 -88 -199 -225 -199c-41 0 -74 6 -122 24c-23 8 -36 11 -45 11c-20 0 -26 -6 -38 -35h-30zM342 719h-48l120 130c34 37 51 49 69 49c25 0 47 -21 47 -47
c0 -18 -9 -29 -38 -46z" />
    <glyph glyph-name="sacute" unicode="&#x15b;" horiz-adv-x="389" 
d="M361 456l-22 -151l-27 2c-15 81 -43 117 -88 117c-32 0 -52 -20 -52 -52c0 -23 17 -53 56 -97c56 -64 81 -113 81 -158c0 -74 -62 -130 -145 -130c-21 0 -39 4 -63 12c-13 5 -24 8 -31 8c-13 0 -24 -8 -28 -20h-27l21 164l27 -3c8 -53 16 -75 35 -100
c16 -20 38 -31 60 -31c31 0 56 24 56 53c0 25 -18 59 -56 103c-65 77 -80 107 -80 161c0 74 52 123 132 123c20 0 33 -3 58 -13c17 -7 25 -9 36 -9c14 0 17 2 28 21h29zM245 511h-49l120 130c35 37 52 49 69 49c26 0 48 -21 48 -47c0 -18 -8 -29 -38 -46z" />
    <glyph glyph-name="Scircumflex" unicode="&#x15c;" horiz-adv-x="556" 
d="M510 716l-87 94l-130 -94h-56l157 172h81l86 -172h-51zM50 -18l34 222l29 -2c5 -60 12 -89 31 -120c26 -42 70 -66 122 -66c49 0 83 19 105 57c12 21 19 45 19 67c0 46 -34 93 -112 152c-57 43 -97 87 -119 129c-8 17 -13 40 -13 66c0 109 85 191 198 191
c28 0 56 -5 97 -19c25 -8 41 -11 51 -11c20 0 34 8 43 26h30l-39 -199l-27 4c-13 116 -52 164 -131 164c-63 0 -103 -40 -103 -103c0 -45 15 -67 77 -114c122 -91 168 -158 168 -245c0 -122 -88 -199 -225 -199c-41 0 -74 6 -122 24c-23 8 -36 11 -45 11
c-20 0 -26 -6 -38 -35h-30z" />
    <glyph glyph-name="scircumflex" unicode="&#x15d;" horiz-adv-x="389" 
d="M361 456l-22 -151l-27 2c-15 81 -43 117 -88 117c-32 0 -52 -20 -52 -52c0 -23 17 -53 56 -97c56 -64 81 -113 81 -158c0 -74 -62 -130 -145 -130c-21 0 -39 4 -63 12c-13 5 -24 8 -31 8c-13 0 -24 -8 -28 -20h-27l21 164l27 -3c8 -53 16 -75 35 -100
c16 -20 38 -31 60 -31c31 0 56 24 56 53c0 25 -18 59 -56 103c-65 77 -80 107 -80 161c0 74 52 123 132 123c20 0 33 -3 58 -13c17 -7 25 -9 36 -9c14 0 17 2 28 21h29zM357 511l-88 94l-129 -94h-57l158 172h80l86 -172h-50z" />
    <glyph glyph-name="Scedilla" unicode="&#x15e;" horiz-adv-x="556" 
d="M235 -16l-30 -45c10 2 17 3 26 3c52 0 89 -30 89 -72c0 -49 -52 -86 -122 -86c-36 0 -68 7 -111 25l22 33c28 -13 44 -17 66 -17c34 0 55 16 55 40c0 23 -17 36 -47 36c-10 0 -18 -1 -29 -4l-13 12l56 82c-17 5 -31 9 -47 15c-24 8 -36 11 -45 11c-20 0 -26 -6 -38 -35
h-30l34 222l29 -2c5 -60 12 -89 31 -120c26 -42 70 -66 122 -66c49 0 83 19 105 57c12 21 19 45 19 67c0 46 -34 93 -112 152c-57 43 -97 87 -119 129c-8 17 -13 40 -13 66c0 109 85 191 198 191c28 0 56 -5 97 -19c25 -8 41 -11 51 -11c20 0 34 8 43 26h30l-39 -199l-27 4
c-13 116 -52 164 -131 164c-63 0 -103 -40 -103 -103c0 -45 15 -67 77 -114c122 -91 168 -158 168 -245c0 -122 -88 -199 -227 -199c-12 0 -20 0 -35 2z" />
    <glyph glyph-name="scedilla" unicode="&#x15f;" horiz-adv-x="389" 
d="M147 -12l-33 -49c10 2 17 3 26 3c52 0 89 -30 89 -72c0 -49 -52 -86 -122 -86c-36 0 -68 7 -111 25l22 33c28 -13 44 -17 66 -17c34 0 55 16 55 40c0 23 -17 36 -46 36c-11 0 -19 -1 -30 -4l-13 12l59 88c-3 1 -6 2 -7 2c-13 5 -25 8 -31 8c-13 0 -25 -8 -28 -20h-27
l21 164l26 -3c9 -53 17 -75 36 -100c16 -20 37 -31 60 -31c31 0 56 23 56 53c0 25 -18 58 -56 103c-66 78 -80 107 -80 160c0 75 52 124 132 124c20 0 33 -3 57 -13c18 -7 26 -9 37 -9c14 0 17 2 28 21h29l-22 -151l-27 2c-16 81 -43 117 -88 117c-32 0 -52 -20 -52 -52
c0 -23 17 -53 56 -97c56 -64 81 -113 81 -158c0 -74 -62 -130 -143 -130c-4 0 -11 0 -20 1z" />
    <glyph glyph-name="Scaron" unicode="&#x160;" horiz-adv-x="556" 
d="M37 -18l34 222l29 -2c5 -60 12 -89 31 -120c26 -42 70 -66 122 -66c49 0 83 19 105 57c12 21 19 45 19 67c0 46 -34 93 -112 152c-57 43 -97 87 -119 129c-8 17 -13 40 -13 66c0 109 85 191 198 191c28 0 56 -5 97 -19c25 -8 41 -11 51 -11c20 0 34 8 43 26h30l-39 -199
l-27 4c-13 116 -52 164 -131 164c-63 0 -103 -40 -103 -103c0 -45 15 -67 77 -114c122 -91 168 -158 168 -245c0 -122 -88 -199 -225 -199c-41 0 -74 6 -122 24c-23 8 -36 11 -45 11c-20 0 -26 -6 -38 -35h-30zM548 888l-160 -172h-81l-88 172h49l91 -96l133 96h56z" />
    <glyph glyph-name="scaron" unicode="&#x161;" horiz-adv-x="389" 
d="M361 456l-22 -151l-27 2c-15 81 -43 117 -88 117c-32 0 -52 -20 -52 -52c0 -23 17 -53 56 -97c56 -64 81 -113 81 -158c0 -74 -62 -130 -145 -130c-21 0 -39 4 -63 12c-13 5 -24 8 -31 8c-13 0 -24 -8 -28 -20h-27l21 164l27 -3c8 -53 16 -75 35 -100
c16 -20 38 -31 60 -31c31 0 56 24 56 53c0 25 -18 59 -56 103c-65 77 -80 107 -80 161c0 74 52 123 132 123c20 0 33 -3 58 -13c17 -7 25 -9 36 -9c14 0 17 2 28 21h29zM450 683l-160 -172h-81l-88 172h50l90 -96l133 96h56z" />
    <glyph glyph-name="Tcommaaccent" unicode="&#x162;" horiz-adv-x="611" 
d="M675 662l-34 -190l-27 2c-6 110 -44 153 -138 153l-135 -500c-8 -27 -11 -46 -11 -61c0 -32 12 -38 83 -41v-25h-328v25h14c50 0 76 21 90 71l143 531c-101 -1 -164 -42 -214 -141l-25 7l37 169h545zM131 -321l-12 21c69 38 104 72 104 104c0 13 -6 21 -27 35
c-27 18 -36 32 -36 57c0 37 27 64 63 64c46 0 77 -35 77 -88c0 -72 -66 -147 -169 -193z" />
    <glyph glyph-name="tcommaaccent" unicode="&#x163;" horiz-adv-x="278" 
d="M309 444l1 -42h-83c-23 -87 -25 -93 -31 -117c-36 -127 -52 -192 -52 -210c0 -8 7 -15 15 -15c17 0 42 26 75 79l22 -14c-65 -102 -104 -134 -163 -134c-42 0 -70 26 -70 65c0 17 10 65 23 111l66 235h-51v35c78 30 127 71 180 151h35l-38 -144h71zM-33 -321l-12 21
c70 38 104 72 104 104c0 13 -6 21 -26 35c-27 18 -36 32 -36 57c0 37 27 64 63 64c45 0 76 -35 76 -88c0 -72 -66 -148 -169 -193z" />
    <glyph glyph-name="Tcaron" unicode="&#x164;" horiz-adv-x="611" 
d="M675 662l-34 -190l-27 2c-6 110 -44 153 -138 153l-135 -500c-8 -27 -11 -46 -11 -61c0 -32 12 -38 83 -41v-25h-328v25h14c50 0 76 21 90 71l143 531c-101 -1 -164 -42 -214 -141l-25 7l37 169h545zM616 891l-160 -172h-81l-88 172h50l90 -96l133 96h56z" />
    <glyph glyph-name="tcaron" unicode="&#x165;" horiz-adv-x="366" 
d="M380 418l-10 26c41 29 60 53 60 77c0 14 -6 22 -27 35c-27 19 -36 33 -36 58c0 37 27 64 63 64c45 0 76 -35 76 -87c0 -61 -47 -125 -126 -173zM309 444v-42h-82c-23 -84 -25 -92 -32 -117c-36 -127 -52 -192 -52 -210c0 -8 7 -15 16 -15c16 0 41 27 74 79l22 -14
c-65 -102 -104 -134 -163 -134c-42 0 -70 26 -70 65c0 17 9 61 23 111l66 235h-50l-1 35c79 30 128 71 181 151h34l-37 -144h71z" />
    <glyph glyph-name="Tbar" unicode="&#x166;" horiz-adv-x="611" 
d="M401 350h89l-12 -53h-91l-46 -170c-8 -27 -11 -46 -11 -61c0 -32 12 -38 83 -41v-25h-328v25h14c50 0 76 21 90 71l54 201h-87l13 53h88l75 277c-101 -1 -164 -42 -214 -141l-25 7l37 169h545l-34 -190l-27 2c-6 110 -44 152 -138 153z" />
    <glyph glyph-name="tbar" unicode="&#x167;" horiz-adv-x="278" 
d="M196 291h82l-12 -53h-85c-24 -84 -38 -145 -38 -163c0 -8 7 -15 16 -15c16 0 42 27 74 80l22 -14c-65 -103 -104 -135 -163 -135c-42 0 -70 26 -70 65c0 17 9 62 23 111l20 71h-43l13 53h45l31 111h-50l-1 35c79 30 128 71 181 151h34l-37 -144h71v-42h-82
c-14 -52 -16 -59 -25 -92z" />
    <glyph glyph-name="Utilde" unicode="&#x168;" horiz-adv-x="722" 
d="M769 662v-25c-55 -11 -61 -21 -100 -151l-64 -226c-31 -108 -53 -160 -87 -199c-44 -52 -110 -79 -194 -79c-131 0 -222 68 -222 164v5c-1 25 11 87 32 169l54 204c8 31 14 61 14 74c0 27 -4 29 -72 39v25h308v-25c-62 -3 -76 -14 -93 -71l-79 -297
c-23 -85 -27 -104 -27 -131c0 -63 46 -101 121 -101c54 0 98 20 131 59c30 37 51 86 77 183l57 207c11 43 18 78 18 95c0 35 -23 51 -80 56v25h206zM662 850h41c-22 -82 -56 -117 -116 -117c-18 0 -29 2 -56 13l-58 22c-13 5 -26 8 -38 8c-22 0 -35 -11 -47 -42h-40
c13 71 57 116 114 116c24 0 56 -8 96 -25c27 -11 42 -16 54 -16c23 0 36 10 50 41z" />
    <glyph glyph-name="utilde" unicode="&#x169;" horiz-adv-x="556" 
d="M484 648h41c-22 -83 -56 -118 -116 -118c-18 0 -30 3 -56 13l-58 23c-14 5 -28 8 -38 8c-22 0 -34 -11 -47 -43h-40c13 72 57 117 114 117c25 0 56 -8 96 -26c27 -11 42 -16 54 -16c23 0 36 10 50 42zM500 131l21 -12c-51 -89 -100 -128 -159 -128c-43 0 -64 19 -64 60
c0 29 5 54 23 108c-101 -142 -131 -168 -197 -168c-50 0 -75 25 -75 74c0 24 7 58 21 106l38 131c9 29 14 58 14 73c0 20 -9 24 -56 27v27c51 3 106 10 179 24c15 3 22 4 28 4l-92 -305c-12 -42 -14 -50 -14 -65c0 -17 7 -25 21 -25c19 0 42 17 72 55c57 72 85 138 138 327
h117l-76 -265c-11 -39 -23 -92 -23 -104c0 -10 6 -17 14 -17c17 0 36 20 70 73z" />
    <glyph glyph-name="Umacron" unicode="&#x16a;" horiz-adv-x="722" 
d="M769 662v-25c-55 -11 -61 -21 -100 -151l-64 -226c-31 -108 -53 -160 -87 -199c-44 -52 -110 -79 -194 -79c-131 0 -222 68 -222 164v5c-1 25 11 87 32 169l54 204c8 31 14 61 14 74c0 27 -4 29 -72 39v25h308v-25c-62 -3 -76 -14 -93 -71l-79 -297
c-23 -85 -27 -104 -27 -131c0 -63 46 -101 121 -101c54 0 98 20 131 59c30 37 51 86 77 183l57 207c11 43 18 78 18 95c0 35 -23 51 -80 56v25h206zM674 824l-16 -69h-323l17 69h322z" />
    <glyph glyph-name="umacron" unicode="&#x16b;" horiz-adv-x="556" 
d="M500 131l21 -12c-51 -89 -100 -128 -159 -128c-43 0 -64 19 -64 60c0 29 5 54 23 108c-101 -142 -131 -168 -197 -168c-50 0 -75 25 -75 74c0 24 7 58 21 106l38 131c9 29 14 58 14 73c0 20 -9 24 -56 27v27c51 3 106 10 179 24c15 3 22 4 28 4l-92 -305
c-12 -42 -14 -50 -14 -65c0 -17 7 -25 21 -25c19 0 42 17 72 55c57 72 85 138 138 327h117l-76 -265c-11 -39 -23 -92 -23 -104c0 -10 6 -17 14 -17c17 0 36 20 70 73zM516 617l-16 -69h-322l16 69h322z" />
    <glyph glyph-name="Ubreve" unicode="&#x16c;" horiz-adv-x="722" 
d="M769 662v-25c-55 -11 -61 -21 -100 -151l-64 -226c-31 -108 -53 -160 -87 -199c-44 -52 -110 -79 -194 -79c-131 0 -222 68 -222 164v5c-1 25 11 87 32 169l54 204c8 31 14 61 14 74c0 27 -4 29 -72 39v25h308v-25c-62 -3 -76 -14 -93 -71l-79 -297
c-23 -85 -27 -104 -27 -131c0 -63 46 -101 121 -101c54 0 98 20 131 59c30 37 51 86 77 183l57 207c11 43 18 78 18 95c0 35 -23 51 -80 56v25h206zM650 886h38c-17 -103 -80 -160 -175 -160c-62 0 -102 22 -122 65c-13 28 -13 28 -15 95h42c6 -60 39 -89 102 -89
c64 0 99 24 130 89z" />
    <glyph glyph-name="ubreve" unicode="&#x16d;" horiz-adv-x="556" 
d="M511 131l21 -12c-51 -89 -100 -128 -159 -128c-43 0 -64 19 -64 60c0 29 5 54 23 108c-101 -142 -131 -168 -197 -168c-50 0 -75 25 -75 74c0 24 7 58 21 106l38 131c9 29 14 58 14 73c0 20 -9 24 -56 27v27c51 3 106 10 179 24c15 3 22 4 28 4l-92 -305
c-12 -42 -14 -50 -14 -65c0 -17 7 -25 21 -25c19 0 42 17 72 55c57 72 85 138 138 327h117l-76 -265c-11 -39 -23 -92 -23 -104c0 -10 6 -17 14 -17c17 0 36 20 70 73zM493 671h39c-17 -102 -80 -160 -176 -160c-93 0 -137 48 -137 149v11h43c6 -61 38 -89 102 -89
s99 24 129 89z" />
    <glyph glyph-name="Uring" unicode="&#x16e;" horiz-adv-x="722" 
d="M769 662v-25c-55 -11 -61 -21 -100 -151l-64 -226c-31 -108 -53 -160 -87 -199c-44 -52 -110 -79 -194 -79c-131 0 -222 68 -222 164v5c-1 25 11 87 32 169l54 204c8 31 14 61 14 74c0 27 -4 29 -72 39v25h308v-25c-62 -3 -76 -14 -93 -71l-79 -297
c-23 -85 -27 -104 -27 -131c0 -63 46 -101 121 -101c54 0 98 20 131 59c30 37 51 86 77 183l57 207c11 43 18 78 18 95c0 35 -23 51 -80 56v25h206zM520 954c58 0 106 -48 106 -106s-47 -105 -105 -105c-59 0 -106 48 -106 108c0 56 48 103 105 103zM519 907
c-31 0 -57 -27 -57 -58c0 -32 26 -58 58 -58s59 26 59 56c0 33 -27 60 -60 60z" />
    <glyph glyph-name="uring" unicode="&#x16f;" horiz-adv-x="556" 
d="M500 131l21 -12c-51 -89 -100 -128 -159 -128c-43 0 -64 19 -64 60c0 29 5 54 23 108c-101 -142 -131 -168 -197 -168c-50 0 -75 25 -75 74c0 24 7 58 21 106l38 131c9 29 14 58 14 73c0 20 -9 24 -56 27v27c51 3 106 10 179 24c15 3 22 4 28 4l-92 -305
c-12 -42 -14 -50 -14 -65c0 -17 7 -25 21 -25c19 0 42 17 72 55c57 72 85 138 138 327h117l-76 -265c-11 -39 -23 -92 -23 -104c0 -10 6 -17 14 -17c17 0 36 20 70 73zM360 746c58 0 106 -48 106 -106s-47 -105 -105 -105c-59 0 -106 48 -106 108c0 56 48 103 105 103z
M359 698c-30 0 -56 -26 -56 -57c0 -32 26 -58 56 -58c32 0 59 25 59 56c0 32 -27 59 -59 59z" />
    <glyph glyph-name="Uhungarumlaut" unicode="&#x170;" horiz-adv-x="722" 
d="M769 662v-25c-55 -11 -61 -21 -100 -151l-64 -226c-31 -108 -53 -160 -87 -199c-44 -52 -110 -79 -194 -79c-131 0 -222 68 -222 164v5c-1 25 11 87 32 169l54 204c8 31 14 61 14 74c0 27 -4 29 -72 39v25h308v-25c-62 -3 -76 -14 -93 -71l-79 -297
c-23 -85 -27 -104 -27 -131c0 -63 46 -101 121 -101c54 0 98 20 131 59c30 37 51 86 77 183l57 207c11 43 18 78 18 95c0 35 -23 51 -80 56v25h206zM431 719h-48l120 130c35 37 51 49 70 49c25 0 47 -21 47 -47c0 -19 -8 -28 -39 -46zM618 719h-48l120 130
c34 37 51 49 70 49c25 0 47 -21 47 -47c0 -19 -8 -29 -39 -46z" />
    <glyph glyph-name="uhungarumlaut" unicode="&#x171;" horiz-adv-x="556" 
d="M500 131l21 -12c-51 -89 -100 -128 -159 -128c-43 0 -64 19 -64 60c0 29 5 54 23 108c-101 -142 -131 -168 -197 -168c-50 0 -75 25 -75 74c0 24 7 58 21 106l38 131c9 29 14 58 14 73c0 20 -9 24 -56 27v27c51 3 106 10 179 24c15 3 22 4 28 4l-92 -305
c-12 -42 -14 -50 -14 -65c0 -17 7 -25 21 -25c19 0 42 17 72 55c57 72 85 138 138 327h117l-76 -265c-11 -39 -23 -92 -23 -104c0 -10 6 -17 14 -17c17 0 36 20 70 73zM259 511h-49l120 130c35 37 52 49 69 49c26 0 48 -21 48 -47c0 -18 -9 -29 -38 -46zM446 511h-49
l120 130c35 37 52 49 69 49c26 0 48 -21 48 -47c0 -18 -9 -29 -38 -46z" />
    <glyph glyph-name="Uogonek" unicode="&#x172;" horiz-adv-x="722" 
d="M563 662h206v-25c-55 -11 -61 -21 -100 -151l-64 -226c-20 -68 -31 -105 -41 -127c-3 -7 -7 -15 -12 -23l-33 -49c-17 -25 -28 -65 -28 -102c0 -40 22 -62 62 -62c16 0 26 3 46 13c8 4 9 5 14 7l21 -14c-24 -45 -71 -74 -120 -74c-62 0 -106 34 -106 80
c0 30 11 51 52 104c-41 -21 -85 -31 -137 -31c-130 0 -221 68 -221 164v5c-1 25 11 87 32 169l54 204c8 31 14 61 14 74c0 27 -4 29 -72 39v25h308v-25c-62 -3 -76 -14 -93 -71l-79 -297c-23 -85 -27 -104 -27 -131c0 -63 46 -101 121 -101c54 0 98 20 131 59
c30 37 51 86 77 183l57 207c11 43 18 78 18 95c0 35 -23 51 -80 56v25z" />
    <glyph glyph-name="uogonek" unicode="&#x173;" horiz-adv-x="556" 
d="M398 444h117l-76 -265c-11 -39 -23 -92 -23 -104c0 -10 6 -17 14 -17c17 0 36 20 70 73l21 -12c-16 -28 -23 -39 -40 -61c-31 -40 -39 -60 -39 -98c0 -41 22 -63 62 -63c16 0 26 3 46 13c8 4 9 5 14 7l21 -14c-24 -45 -71 -74 -121 -74c-61 0 -105 34 -105 80
c0 27 8 46 39 87c-16 -4 -23 -5 -35 -5c-44 0 -65 19 -65 60c0 29 5 54 23 108c-101 -142 -131 -168 -197 -168c-50 0 -75 25 -75 74c0 24 7 58 21 106l38 131c9 29 14 58 14 73c0 20 -9 24 -56 27v27c51 3 106 10 179 24c15 3 22 4 28 4l-92 -305c-12 -42 -14 -50 -14 -65
c0 -17 7 -25 21 -25c19 0 42 17 72 55c57 72 85 138 138 327z" />
    <glyph glyph-name="Wcircumflex" unicode="&#x174;" horiz-adv-x="889" 
d="M1004 662v-24c-41 -6 -56 -18 -83 -72l-279 -584h-29l-62 484l-227 -484h-29l-80 573c-11 70 -13 73 -77 83v24h274v-25c-47 -5 -60 -17 -60 -52l1 -16l41 -346l147 308c-2 85 -12 99 -71 107v24h266v-25c-52 -5 -62 -14 -62 -57c0 -12 0 -13 6 -64l35 -293l152 324
c13 28 15 34 15 45c0 36 -7 41 -63 45v25h185zM717 716l-88 94l-129 -94h-56l157 172h80l87 -172h-51z" />
    <glyph glyph-name="wcircumflex" unicode="&#x175;" horiz-adv-x="667" 
d="M49 403v27c82 13 113 19 153 27c23 -85 31 -149 35 -272c54 100 70 128 152 272h27l34 -328c86 101 116 148 116 179c0 10 -6 23 -20 41c-15 21 -21 34 -21 49c0 32 25 59 55 59c33 0 61 -29 61 -62c0 -83 -86 -214 -267 -408h-27l-24 283l-18 -35
c-50 -89 -85 -152 -93 -163l-56 -85h-26v44l1 34v6l-2 77c-4 139 -18 229 -38 247c-8 6 -17 8 -42 8zM511 511l-88 94l-129 -94h-56l157 172h80l86 -172h-50z" />
    <glyph glyph-name="Ycircumflex" unicode="&#x176;" horiz-adv-x="611" 
d="M572 716l-88 94l-129 -94h-56l157 172h80l86 -172h-50zM289 310l-88 265c-19 53 -22 55 -73 62v25h280v-25c-54 -1 -69 -9 -69 -35c0 -18 10 -54 33 -119c19 -58 31 -95 45 -135l126 184c21 30 26 42 26 59c0 35 -14 45 -67 46v25h206v-25c-38 -8 -57 -22 -90 -68
l-186 -264l-51 -189c-6 -23 -7 -31 -7 -44c0 -37 12 -44 76 -47v-25h-318v25c68 5 82 15 99 71z" />
    <glyph glyph-name="ycircumflex" unicode="&#x177;" horiz-adv-x="444" 
d="M383 511l-88 94l-129 -94h-56l157 172h80l86 -172h-50zM65 407v26c64 6 100 12 147 24c17 -45 45 -157 67 -274l13 -74c67 132 84 172 84 202c0 14 -5 22 -24 35c-24 18 -31 30 -31 55c0 29 26 56 55 56c34 0 63 -29 63 -64c0 -100 -116 -334 -244 -492
c-53 -65 -118 -104 -173 -104c-34 0 -61 26 -61 60c0 28 23 54 49 54c16 0 44 -9 57 -19c11 -9 28 -16 36 -16c37 0 91 71 91 119c0 31 -18 132 -51 286c-15 71 -32 111 -49 121c-6 4 -12 5 -29 5z" />
    <glyph glyph-name="Ydieresis" unicode="&#x178;" horiz-adv-x="611" 
d="M265 310l-88 265c-19 53 -22 55 -73 62v25h280v-25c-54 -1 -69 -9 -69 -35c0 -18 10 -54 33 -119c19 -58 31 -95 45 -135l126 184c21 30 26 42 26 59c0 35 -14 45 -67 46v25h206v-25c-38 -8 -57 -22 -90 -68l-186 -264l-51 -189c-6 -23 -7 -31 -7 -44
c0 -37 12 -44 76 -47v-25h-318v25c68 5 82 15 99 71zM330 853c36 0 66 -30 66 -66c0 -34 -30 -63 -66 -63c-33 0 -63 30 -63 64c0 36 28 65 63 65zM540 853c36 0 66 -30 66 -66c0 -34 -30 -63 -66 -63c-33 0 -63 30 -63 64c0 36 28 65 63 65z" />
    <glyph glyph-name="Zacute" unicode="&#x179;" horiz-adv-x="611" 
d="M582 192l-57 -192h-501v29l426 598h-77c-111 -2 -176 -40 -249 -145l-27 4l55 176h463v-29l-426 -598h70c142 -2 218 40 297 162zM372 719h-48l120 130c34 37 51 49 70 49c25 0 47 -21 47 -47c0 -19 -8 -28 -39 -46z" />
    <glyph glyph-name="zacute" unicode="&#x17a;" horiz-adv-x="389" 
d="M45 292l41 152h309v-10l-276 -331c51 -22 74 -45 106 -105c17 -34 29 -46 48 -46c12 0 21 7 21 15c0 4 -2 8 -8 15c-9 12 -12 20 -12 31c0 28 22 51 49 51c28 0 53 -24 53 -52c0 -50 -46 -89 -107 -89c-40 0 -77 14 -129 50c-35 24 -54 32 -74 32c-9 0 -13 -2 -24 -9
c0 0 -5 -3 -15 -11c-4 -2 -7 -5 -11 -8l-25 22l287 350h-144c-30 -1 -46 -17 -61 -60zM244 511h-48l120 130c34 37 51 49 69 49c26 0 48 -21 48 -47c0 -18 -8 -29 -39 -46z" />
    <glyph glyph-name="Zdotaccent" unicode="&#x17b;" horiz-adv-x="611" 
d="M582 192l-57 -192h-501v29l426 598h-77c-111 -2 -176 -40 -249 -145l-27 4l55 176h463v-29l-426 -598h70c142 -2 218 40 297 162zM393 856c36 0 66 -30 66 -66c0 -34 -30 -63 -66 -63c-33 0 -63 30 -63 64c0 36 28 65 63 65z" />
    <glyph glyph-name="zdotaccent" unicode="&#x17c;" horiz-adv-x="389" 
d="M45 292l41 152h309v-10l-276 -331c51 -22 74 -45 106 -105c17 -34 29 -46 48 -46c12 0 21 7 21 15c0 4 -2 8 -8 15c-9 12 -12 20 -12 31c0 28 22 51 49 51c28 0 53 -24 53 -52c0 -50 -46 -89 -107 -89c-40 0 -77 14 -129 50c-35 24 -54 32 -74 32c-9 0 -13 -2 -24 -9
c0 0 -5 -3 -15 -11c-4 -2 -7 -5 -11 -8l-25 22l287 350h-144c-30 -1 -46 -17 -61 -60zM247 649c36 0 66 -30 66 -66c0 -34 -30 -63 -66 -63c-33 0 -63 30 -63 64c0 36 28 65 63 65z" />
    <glyph glyph-name="Zcaron" unicode="&#x17d;" horiz-adv-x="611" 
d="M582 192l-57 -192h-501v29l426 598h-77c-111 -2 -176 -40 -249 -145l-27 4l55 176h463v-29l-426 -598h70c142 -2 218 40 297 162zM590 888l-160 -172h-81l-88 172h50l90 -96l133 96h56z" />
    <glyph glyph-name="zcaron" unicode="&#x17e;" horiz-adv-x="389" 
d="M45 292l41 152h309v-10l-276 -331c51 -22 74 -45 106 -105c17 -34 29 -46 48 -46c12 0 21 7 21 15c0 4 -2 8 -8 15c-9 12 -12 20 -12 31c0 28 22 51 49 51c28 0 53 -24 53 -52c0 -50 -46 -89 -107 -89c-40 0 -77 14 -129 50c-35 24 -54 32 -74 32c-9 0 -13 -2 -24 -9
c0 0 -5 -3 -15 -11c-4 -2 -7 -5 -11 -8l-25 22l287 350h-144c-30 -1 -46 -17 -61 -60zM444 683l-160 -172h-81l-88 172h49l91 -96l133 96h56z" />
    <glyph glyph-name="longs" unicode="&#x17f;" horiz-adv-x="333" 
d="M142 402h-72l9 42h72c27 100 47 141 88 187c35 39 83 60 135 60c60 0 98 -31 98 -79c0 -31 -21 -53 -50 -53c-28 0 -49 21 -49 49c0 10 3 18 11 30c4 6 5 8 5 11c0 8 -7 13 -17 13c-18 0 -35 -13 -51 -40c-26 -44 -28 -52 -108 -435c-33 -157 -73 -268 -118 -325
c-34 -43 -77 -65 -130 -65c-59 0 -98 31 -98 79c0 28 24 53 51 53c25 0 49 -24 49 -48c0 -11 -4 -22 -12 -33c-3 -4 -4 -7 -4 -9c0 -6 8 -11 18 -11c39 0 59 42 88 187c7 33 36 165 85 387z" />
    <glyph glyph-name="florin" unicode="&#x192;" 
d="M91 372l12 41h104c38 165 119 253 232 253c67 0 111 -33 111 -82c0 -35 -23 -59 -58 -59c-32 0 -56 20 -56 48c0 13 5 24 15 34c9 9 11 11 11 18c0 10 -8 15 -21 15c-19 0 -38 -12 -52 -34c-19 -30 -30 -73 -49 -193h119l-12 -41h-115l-29 -156
c-21 -114 -62 -227 -103 -281c-41 -55 -98 -85 -162 -85s-110 35 -110 83c0 34 24 59 57 59c30 0 53 -21 53 -49c0 -16 -3 -22 -22 -42c-3 -3 -5 -7 -5 -11c0 -8 10 -14 25 -14c41 0 70 57 97 192l62 304h-104z" />
    <glyph glyph-name="Aringacute" unicode="&#x1fa;" horiz-adv-x="667" 
d="M593 25v-25h-304v25c64 6 79 17 79 59c0 8 -5 50 -15 124h-215l-59 -102c-10 -17 -15 -32 -15 -46c0 -24 19 -35 65 -35v-25h-196v25c36 8 50 20 83 70l372 588h25l96 -572c13 -76 18 -81 84 -86zM161 248h185l-37 243zM410 843c58 0 106 -34 106 -74
c0 -42 -47 -76 -107 -76c-59 0 -106 34 -106 77c0 39 49 73 107 73zM408 809c-31 0 -57 -19 -57 -42c0 -21 26 -40 57 -40c32 0 60 18 60 40c0 23 -27 42 -60 42zM365 845h-49l122 92c37 27 52 35 70 35c27 0 48 -15 48 -33c0 -13 -9 -21 -39 -33z" />
    <glyph glyph-name="aringacute" unicode="&#x1fb;" 
d="M434 127l21 -15c-57 -87 -104 -126 -151 -126c-37 0 -67 29 -67 66c0 14 2 26 14 67c-57 -96 -103 -132 -164 -132c-65 0 -108 51 -108 127c0 156 150 348 273 348c43 0 65 -21 74 -72l18 59l111 7l-71 -236c-25 -82 -34 -123 -34 -148c0 -9 4 -15 12 -15
c16 0 31 15 72 70zM266 420c-27 2 -60 -29 -90 -82c-41 -74 -74 -174 -74 -226c0 -31 19 -54 45 -54c27 0 57 26 84 75c38 69 72 180 72 240c0 27 -15 45 -37 47zM316 744c58 0 106 -48 106 -106c0 -59 -48 -107 -107 -107s-106 48 -106 108c0 57 49 105 107 105zM314 696
c-31 0 -57 -27 -57 -59s26 -58 57 -58c33 0 60 26 60 57c0 33 -27 60 -60 60zM310 762h-49l122 131c35 38 52 50 70 50c26 0 48 -21 48 -47c0 -19 -9 -30 -39 -47z" />
    <glyph glyph-name="AEacute" unicode="&#x1fc;" horiz-adv-x="944" 
d="M264 0v25c52 8 62 17 78 71l46 159h-192l-114 -157c-10 -13 -15 -27 -15 -39c0 -22 16 -30 64 -34v-25h-195v25c16 2 22 4 30 9c6 3 18 17 58 68l366 472c12 16 20 33 20 44c0 19 -16 24 -81 28v23h589l-45 -190l-24 5l-2 40c-4 75 -58 113 -162 113
c-42 0 -52 -5 -59 -32l-65 -235h10h9c99 -1 139 23 175 106l26 -4l-73 -273l-25 5l2 20c1 12 1 18 1 26c0 66 -23 81 -133 88l-63 -241l-1 -2c-3 -11 -4 -19 -4 -26c0 -26 17 -37 58 -37c71 0 134 16 177 46c37 26 62 54 104 121l26 -3l-59 -196h-527zM225 294h173l92 333
h-12zM578 735h-49l122 131c35 38 52 50 70 50c26 0 48 -21 48 -47c0 -19 -9 -30 -39 -47z" />
    <glyph glyph-name="aeacute" unicode="&#x1fd;" horiz-adv-x="722" 
d="M352 396l18 58l103 5l-20 -65c43 50 71 65 120 65c63 0 100 -32 100 -87c0 -82 -83 -149 -228 -182l-39 -9c-4 -20 -5 -32 -5 -47c0 -52 26 -84 66 -84c48 0 90 30 124 89l28 -17c-43 -88 -110 -135 -194 -135c-48 0 -88 16 -110 44c-17 21 -25 41 -33 87
c-56 -93 -106 -130 -174 -130c-65 0 -113 50 -113 118c0 164 149 356 276 356c43 0 63 -16 81 -66zM285 419c-32 0 -64 -28 -97 -87c-38 -67 -64 -150 -67 -208c-2 -40 18 -66 48 -66c34 0 64 25 93 79c39 68 71 172 71 226c0 32 -20 56 -48 56zM418 231l-5 -17
c28 4 50 13 81 32c59 37 89 85 89 142c0 29 -10 41 -33 41c-50 0 -92 -63 -132 -198zM404 516h-49l122 131c36 38 52 50 70 50c26 0 48 -21 48 -47c0 -19 -9 -30 -39 -47z" />
    <glyph glyph-name="Oslashacute" unicode="&#x1fe;" horiz-adv-x="722" 
d="M633 764l-63 -108c39 -23 55 -36 75 -61c29 -38 46 -91 46 -142c0 -146 -83 -304 -207 -396c-67 -49 -142 -75 -218 -75c-31 0 -52 3 -83 13l-70 -120h-48l79 136c-31 18 -44 28 -61 47c-36 42 -56 96 -56 154c0 241 207 473 421 473c30 0 51 -3 83 -13l53 92h49zM182 77
l324 553c-19 15 -37 21 -63 21c-61 0 -116 -43 -165 -130c-58 -103 -107 -278 -107 -380c0 -22 4 -44 11 -64zM533 593l-325 -555c21 -16 39 -22 66 -22c53 0 98 31 144 97c66 95 129 298 129 414c0 22 -5 43 -14 66zM456 733h-49l122 131c35 38 52 50 70 50
c26 0 48 -21 48 -47c0 -19 -9 -29 -39 -47z" />
    <glyph glyph-name="oslashacute" unicode="&#x1ff;" 
d="M424 560l-65 -116c57 -28 82 -69 82 -133c0 -169 -136 -324 -284 -324c-18 0 -31 2 -51 8l-64 -114h-40l72 126c-53 30 -77 70 -77 127c0 170 139 328 289 328c14 0 24 -1 42 -6l59 104h37zM116 78l191 341c-10 10 -19 14 -32 14c-32 0 -61 -23 -86 -68
c-36 -65 -73 -205 -73 -279v-8zM321 377l-193 -343c10 -13 21 -18 37 -18c39 0 70 33 101 109c29 69 56 187 56 247c0 2 0 3 -1 5zM271 516h-49l122 131c35 38 52 50 70 50c26 0 48 -21 48 -47c0 -19 -9 -29 -39 -47z" />
    <glyph glyph-name="Scommaaccent" unicode="&#x218;" horiz-adv-x="556" 
d="M29 -16l37 221h31c5 -61 14 -95 33 -125c24 -39 70 -64 118 -64c69 0 121 52 121 122c0 40 -12 66 -44 98c-10 10 -10 10 -78 68c-86 71 -116 119 -116 184c0 110 89 191 210 191c30 0 60 -5 100 -15c33 -9 41 -11 52 -11c17 0 25 5 39 26h30l-41 -200h-30v11
c0 94 -53 156 -133 156c-62 0 -103 -39 -103 -98c0 -44 21 -75 90 -128c124 -96 158 -147 158 -235c0 -121 -92 -202 -229 -202c-50 0 -107 11 -152 29c-11 4 -20 6 -26 6c-12 0 -18 -6 -36 -34h-31zM144 -281l-10 18c62 39 81 58 81 80c0 12 -5 17 -27 32
c-19 14 -26 26 -26 46c0 32 24 55 57 55c37 0 64 -31 64 -73c0 -61 -45 -112 -139 -158z" />
    <glyph glyph-name="scommaaccent" unicode="&#x219;" horiz-adv-x="389" 
d="M15 -12l23 167h30c6 -90 38 -134 96 -134c33 0 56 22 56 52c0 32 -7 43 -69 119c-50 60 -69 98 -69 142c0 75 57 126 140 126c27 0 54 -5 83 -15c7 -2 14 -4 18 -4c7 0 11 4 21 19h29l-25 -154h-27c-7 80 -37 121 -88 121c-33 0 -55 -20 -55 -48c0 -25 2 -28 90 -140
c37 -46 53 -83 53 -120c0 -76 -62 -131 -146 -131c-27 0 -57 5 -89 15c-7 3 -13 4 -18 4c-8 0 -11 -2 -25 -19h-28zM65 -281l-10 18c63 39 82 58 82 80c0 12 -5 17 -27 32c-20 14 -27 26 -27 46c0 31 25 55 58 55c37 0 64 -31 64 -73c0 -61 -45 -112 -140 -158z" />
    <glyph glyph-name="uni021A" unicode="&#x21a;" horiz-adv-x="611" 
d="M675 662l-34 -190l-27 2c-6 110 -44 153 -138 153l-135 -500c-8 -27 -11 -46 -11 -61c0 -32 12 -38 83 -41v-25h-328v25h14c50 0 76 21 90 71l143 531c-101 -1 -164 -42 -214 -141l-25 7l37 169h545zM131 -321l-12 21c69 38 104 72 104 104c0 13 -6 21 -27 35
c-27 18 -36 32 -36 57c0 37 27 64 63 64c46 0 77 -35 77 -88c0 -72 -66 -147 -169 -193z" />
    <glyph glyph-name="uni021B" unicode="&#x21b;" horiz-adv-x="278" 
d="M309 444l1 -42h-83c-23 -87 -25 -93 -31 -117c-36 -127 -52 -192 -52 -210c0 -8 7 -15 15 -15c17 0 42 26 75 79l22 -14c-65 -102 -104 -134 -163 -134c-42 0 -70 26 -70 65c0 17 10 65 23 111l66 235h-51v35c78 30 127 71 180 151h35l-38 -144h71zM-33 -321l-12 21
c70 38 104 72 104 104c0 13 -6 21 -26 35c-27 18 -36 32 -36 57c0 37 27 64 63 64c45 0 76 -35 76 -88c0 -72 -66 -148 -169 -193z" />
    <glyph glyph-name="circumflex" unicode="&#x2c6;" horiz-adv-x="333" 
d="M348 511l-87 94l-130 -94h-56l157 172h81l86 -172h-51z" />
    <glyph glyph-name="caron" unicode="&#x2c7;" horiz-adv-x="333" 
d="M450 683l-160 -172h-81l-88 172h49l91 -96l133 96h56z" />
    <glyph glyph-name="uni02C9" unicode="&#x2c9;" horiz-adv-x="333" 
d="M103 594h300l1 -87h-300z" />
    <glyph glyph-name="breve" unicode="&#x2d8;" horiz-adv-x="333" 
d="M395 671h39c-17 -103 -81 -160 -176 -160c-93 0 -137 48 -137 149v11h43c6 -61 38 -89 101 -89c65 0 100 24 130 89z" />
    <glyph glyph-name="dotaccent" unicode="&#x2d9;" horiz-adv-x="333" 
d="M255 649c36 0 66 -30 66 -66c0 -34 -30 -63 -66 -63c-33 0 -63 30 -63 64c0 36 28 65 63 65z" />
    <glyph glyph-name="ring" unicode="&#x2da;" horiz-adv-x="333" 
d="M277 746c58 0 106 -48 106 -106s-47 -105 -105 -105c-59 0 -106 48 -106 108c0 56 48 103 105 103zM276 698c-30 0 -56 -26 -56 -57c0 -32 26 -58 57 -58c32 0 59 25 59 56c0 32 -27 59 -60 59z" />
    <glyph glyph-name="ogonek" unicode="&#x2db;" horiz-adv-x="333" 
d="M85 32l32 12c-1 -7 -2 -9 -5 -21c-7 -28 -11 -48 -11 -62c0 -42 22 -64 62 -64c16 0 26 3 46 13c8 4 9 5 14 7l22 -14c-25 -46 -72 -74 -121 -74c-62 0 -106 34 -106 80c0 30 14 57 52 105c9 10 10 12 15 18z" />
    <glyph glyph-name="tilde" unicode="&#x2dc;" horiz-adv-x="333" 
d="M400 648h41c-22 -83 -56 -118 -116 -118c-19 0 -30 3 -56 13l-58 23c-14 5 -28 8 -38 8c-22 0 -34 -11 -47 -43h-40c13 72 57 117 114 117c25 0 56 -8 96 -26c26 -11 42 -16 54 -16c23 0 35 10 50 42z" />
    <glyph glyph-name="hungarumlaut" unicode="&#x2dd;" horiz-adv-x="333" 
d="M162 511h-48l120 130c34 37 52 49 69 49c26 0 48 -21 48 -46c0 -19 -9 -30 -38 -47zM350 511h-49l120 130c35 37 51 49 69 49c26 0 48 -21 48 -46c0 -19 -9 -30 -38 -47z" />
    <glyph glyph-name="tonos" unicode="&#x384;" horiz-adv-x="333" 
d="M205 466l2 33l1 75c1 43 6 67 16 78c11 12 31 20 51 20c32 0 54 -18 54 -44c0 -25 -3 -33 -52 -122c-2 -2 -9 -16 -21 -40h-51z" />
    <glyph glyph-name="dieresistonos" unicode="&#x385;" horiz-adv-x="333" 
d="M234 577v7l-1 25l-4 45c2 37 2 38 10 47c8 8 23 14 39 14c24 0 41 -12 41 -31c0 -18 -2 -22 -40 -80l-16 -27h-29zM160 578c29 0 54 -26 54 -55c0 -30 -24 -54 -53 -54c-30 0 -55 25 -55 56c0 30 24 53 54 53zM325 578c29 0 54 -26 54 -55c0 -30 -24 -54 -53 -54
c-30 0 -55 25 -55 56c0 30 24 53 54 53z" />
    <glyph glyph-name="Alphatonos" unicode="&#x386;" horiz-adv-x="667" 
d="M360 208h-163l-75 -102c-16 -21 -21 -34 -21 -49c0 -21 17 -35 41 -35h15l-5 -22h-174l6 22c20 3 46 27 88 84l418 556h25l-28 -573v-10c0 -38 13 -57 39 -57h12l-6 -22h-255l6 22h7c39 1 59 23 63 67zM363 250l10 200l-146 -200h136zM212 392h-57c2 24 2 28 4 45
c1 9 3 43 7 102c3 59 10 90 22 105c12 17 36 28 58 28c34 0 58 -23 58 -56c0 -34 -5 -46 -66 -169c-4 -7 -12 -24 -26 -55z" />
    <glyph glyph-name="uni0387" unicode="&#x387;" horiz-adv-x="250" 
d="M155 400c40 0 73 -33 73 -74c0 -40 -32 -72 -73 -72c-42 0 -73 31 -73 74c0 41 32 72 73 72z" />
    <glyph glyph-name="Epsilontonos" unicode="&#x388;" horiz-adv-x="777" 
d="M156 392h-57c2 24 3 28 4 45c1 9 3 43 7 102s10 90 22 105c12 17 36 28 58 28c35 0 58 -23 58 -56c0 -34 -5 -46 -66 -169c-3 -5 -12 -24 -26 -55zM439 331l-59 -224c-4 -14 -6 -25 -6 -33c0 -24 22 -39 58 -39c79 0 170 47 254 131h19l-63 -166h-477l6 22h7
c34 3 52 21 64 66l131 491c1 6 2 10 2 17c0 27 -16 43 -43 44h-24l5 22h475l-41 -154h-18c-6 75 -69 120 -161 117h-50l-69 -258h42c72 0 121 31 150 96h21l-61 -230h-21c3 21 3 25 3 32c0 42 -29 66 -81 66h-63z" />
    <glyph glyph-name="Etatonos" unicode="&#x389;" horiz-adv-x="895" 
d="M141 392h-57c2 24 3 28 4 45c1 9 3 43 7 102s10 90 22 105c12 17 36 28 58 28c35 0 58 -23 58 -56c0 -34 -5 -46 -66 -169c-3 -5 -12 -24 -26 -55zM422 321l-63 -238c-2 -7 -3 -14 -3 -19c0 -25 17 -41 44 -42h28l-6 -22h-273l6 22h8c34 3 52 21 64 66l131 491
c1 6 2 11 2 18c0 26 -16 42 -43 43h-21l5 22h297l-5 -22h-39c-34 -3 -52 -21 -64 -66l-57 -212h230l58 217c1 6 2 11 2 18c0 26 -16 42 -43 43h-26l6 22h276l-6 -22h-12c-35 -3 -52 -21 -65 -66l-131 -491c-1 -6 -2 -12 -2 -18c0 -26 16 -42 43 -43h25l-6 -22h-299l6 22h37
c34 3 52 21 64 66l62 233h-230z" />
    <glyph glyph-name="Iotatonos" unicode="&#x38a;" horiz-adv-x="506" 
d="M128 392h-57c2 24 3 28 4 45c1 9 3 43 7 102s10 90 22 105c12 17 36 28 58 28c35 0 58 -23 58 -56c0 -34 -5 -46 -66 -169c-3 -5 -12 -24 -26 -55zM415 22l-6 -22h-273l6 22h8c34 3 52 21 64 66l131 491c1 6 2 11 2 18c0 26 -16 42 -43 43h-21l5 22h271l-6 -22h-12
c-35 -3 -52 -21 -64 -66l-131 -491c-2 -7 -3 -14 -3 -19c0 -25 17 -41 44 -42h28z" />
    <glyph glyph-name="Omicrontonos" unicode="&#x38c;" horiz-adv-x="731" 
d="M105 392h-57c2 24 3 28 4 45c1 9 3 43 7 102s10 90 22 105c12 17 36 28 58 28c35 0 58 -23 58 -56c0 -34 -5 -46 -66 -169c-3 -5 -12 -24 -26 -55zM537 671c139 0 225 -87 225 -228c0 -237 -194 -452 -409 -452c-66 0 -125 22 -160 61c-38 41 -60 102 -60 165
c0 132 66 274 168 363c63 55 156 91 236 91zM524 631c-56 0 -108 -34 -145 -97c-56 -93 -104 -267 -104 -377c0 -76 38 -127 94 -127c50 0 102 31 133 80c63 96 117 279 117 396c0 76 -37 125 -95 125z" />
    <glyph glyph-name="Upsilontonos" unicode="&#x38e;" horiz-adv-x="750" 
d="M111 392h-57c2 24 3 28 4 45c1 9 3 43 7 102s10 90 22 105c12 17 36 28 58 28c35 0 58 -23 58 -56c0 -34 -5 -46 -66 -169c-3 -5 -12 -24 -26 -55zM512 336l162 210c13 17 20 36 20 52c0 23 -23 42 -49 42h-19l6 22h190l-6 -22c-22 -7 -48 -30 -82 -72l-212 -281
l-55 -204c-1 -7 -2 -12 -2 -19c0 -25 17 -42 43 -42h35l-6 -22h-305l5 22h32c35 3 53 21 65 66l54 205l-67 253c-21 73 -38 94 -77 94h-13l6 22h290l-6 -22h-18c-40 0 -58 -17 -58 -54c0 -8 2 -19 4 -29z" />
    <glyph glyph-name="Omegatonos" unicode="&#x38f;" horiz-adv-x="785" 
d="M125 392h-57c2 24 3 28 4 45c1 9 3 43 7 102s10 90 22 105c12 17 36 28 58 28c35 0 58 -23 58 -56c0 -34 -5 -46 -66 -169c-3 -5 -12 -24 -26 -55zM117 173h19c15 -54 65 -87 130 -85h66c-93 57 -141 135 -141 228c0 114 65 236 160 299c54 36 123 56 194 56
c142 0 233 -84 233 -216c0 -100 -49 -193 -149 -281c-46 -40 -79 -62 -130 -86h85c80 2 112 19 159 85h18l-75 -173h-239l24 90c46 50 73 93 107 172c37 86 61 183 61 249c0 73 -42 119 -109 119c-76 0 -124 -49 -161 -162c-28 -86 -42 -164 -42 -233c0 -62 7 -92 35 -145
l-24 -90h-234z" />
    <glyph glyph-name="iotadieresistonos" unicode="&#x390;" horiz-adv-x="278" 
d="M231 123l18 -15c-24 -40 -36 -55 -58 -76c-33 -29 -54 -40 -81 -40c-44 0 -70 28 -70 75c0 16 3 34 9 54l62 211c4 14 8 35 8 44c0 14 -15 28 -31 28c-5 0 -12 -1 -19 -2l6 24l188 27l-104 -362c-4 -13 -5 -17 -5 -21c0 -7 5 -13 12 -13c13 0 32 19 65 66zM202 596v7v26
l-4 46c-1 22 3 41 10 49c8 9 23 15 38 15c24 0 41 -13 41 -32s-2 -23 -40 -83c0 -1 -6 -11 -16 -28h-29zM123 598c29 0 54 -26 54 -57s-24 -56 -53 -56c-30 0 -55 26 -55 58c0 31 24 55 54 55zM308 598c29 0 54 -27 54 -57c0 -31 -24 -56 -53 -56c-30 0 -55 26 -55 58
c0 31 24 55 54 55z" />
    <glyph glyph-name="Alpha" unicode="&#x391;" horiz-adv-x="667" 
d="M360 208h-163l-75 -102c-16 -21 -21 -34 -21 -49c0 -21 17 -35 41 -35h15l-5 -22h-174l6 22c20 3 46 27 88 84l418 556h25l-28 -573v-10c0 -38 13 -57 39 -57h12l-6 -22h-255l6 22h7c39 1 59 23 63 67zM363 250l10 200l-146 -200h136z" />
    <glyph glyph-name="Beta" unicode="&#x392;" horiz-adv-x="667" 
d="M182 662h245c126 0 194 -48 194 -136c0 -55 -28 -99 -82 -134c-39 -25 -67 -34 -117 -39c49 -15 71 -25 97 -47c31 -27 51 -68 51 -107c0 -58 -35 -123 -85 -159c-36 -25 -87 -40 -135 -40h-322l6 22h15c35 3 53 21 65 66l131 491c1 6 2 12 2 18c0 26 -17 42 -43 43h-28z
M308 331l-78 -292c19 -4 28 -5 43 -5c52 0 93 21 122 63c23 32 38 83 38 125c0 43 -21 82 -52 97c-16 9 -35 12 -73 12zM386 627l-69 -262c49 0 76 6 103 25c40 28 68 88 68 149s-31 88 -102 88z" />
    <glyph glyph-name="Gamma" unicode="&#x393;" horiz-adv-x="604" 
d="M248 26l1 -26h-294v26c53 3 65 19 90 121l97 395c9 34 10 39 10 53c0 28 -19 39 -71 41l-1 26h587l-48 -194l-28 -7c-3 58 -14 89 -44 119c-31 32 -73 44 -152 44c-81 0 -85 -4 -111 -109l-91 -371c-12 -46 -15 -63 -15 -78c0 -27 18 -38 70 -40z" />
    <glyph glyph-name="uni0394" unicode="&#x394;" horiz-adv-x="627" 
d="M-23 0l505 662h27l-26 -662h-506zM353 61l17 387l-206 -279c-33 -45 -48 -71 -48 -83c0 -9 6 -17 16 -20c11 -4 11 -4 67 -5h154z" />
    <glyph glyph-name="Epsilon" unicode="&#x395;" horiz-adv-x="667" 
d="M318 331l-60 -224c-3 -13 -5 -25 -5 -33c0 -24 22 -39 57 -39c80 0 172 47 255 131h18l-62 -166h-477l6 22h6c35 3 53 21 65 66l131 491c1 6 2 11 2 18c0 26 -17 42 -43 43h-25l6 22h475l-41 -154h-18c-6 75 -69 120 -161 117h-51l-68 -258h42c71 -1 121 31 150 96h21
l-61 -230h-21c3 23 3 25 3 33c0 42 -29 65 -81 65h-63z" />
    <glyph glyph-name="Zeta" unicode="&#x396;" horiz-adv-x="611" 
d="M553 182l-63 -182h-508l6 22l478 601h-102c-107 1 -181 -37 -226 -117h-33l53 156h497v-22l-482 -601h79c107 2 169 34 276 143h25z" />
    <glyph glyph-name="Eta" unicode="&#x397;" horiz-adv-x="778" 
d="M297 321l-63 -238c-2 -7 -2 -10 -2 -19c0 -25 17 -41 43 -42h28l-6 -22h-273l6 22h8c34 3 52 21 64 66l131 491c2 6 2 10 2 18c0 26 -16 42 -43 43h-21l6 22h296l-5 -22h-39c-34 -3 -52 -21 -64 -66l-57 -212h230l58 217c2 6 2 10 2 18c0 26 -16 42 -43 43h-26l6 22h276
l-6 -22h-12c-35 -3 -52 -21 -65 -66l-130 -491c-2 -6 -3 -13 -3 -18c0 -26 16 -42 43 -43h25l-6 -22h-298l6 22h36c34 3 52 21 64 66l62 233h-230z" />
    <glyph glyph-name="Theta" unicode="&#x398;" horiz-adv-x="763" 
d="M301 462h30c-2 -12 -2 -16 -2 -22c0 -29 21 -44 60 -44c48 0 68 15 87 66h29l-58 -234h-29c3 17 4 21 4 26c0 27 -24 45 -60 45c-52 0 -75 -18 -89 -71h-29zM453 679c168 0 272 -99 272 -257c0 -99 -50 -228 -123 -313c-66 -78 -187 -126 -318 -126
c-165 0 -267 99 -267 259c0 94 32 184 97 268c49 65 99 107 159 133c54 23 118 36 180 36zM454 646c-63 0 -117 -22 -149 -61c-81 -96 -141 -274 -141 -415c0 -103 42 -154 126 -154c42 0 94 15 122 36c83 62 166 280 166 436c0 46 -13 91 -34 120c-18 24 -51 38 -90 38z
" />
    <glyph glyph-name="Iota" unicode="&#x399;" horiz-adv-x="389" 
d="M290 22l-6 -22h-273l6 22h8c34 3 52 21 64 66l131 491c2 6 2 10 2 18c0 26 -16 42 -43 43h-21l6 22h270l-6 -22h-12c-34 -3 -52 -21 -64 -66l-131 -491c-2 -7 -2 -10 -2 -19c0 -25 17 -41 43 -42h28z" />
    <glyph glyph-name="Kappa" unicode="&#x39a;" horiz-adv-x="667" 
d="M306 353l-72 -270c-2 -6 -2 -10 -2 -18c0 -26 16 -43 43 -43h31l-6 -22h-273l6 22h9c35 3 53 21 65 66l131 491c1 7 2 12 2 19c0 25 -17 42 -43 42h-31l6 22h285l-6 -22h-22c-34 -3 -52 -21 -64 -66l-57 -215l186 175c26 24 42 52 42 72c0 19 -13 34 -30 34h-12l6 22h223
l-5 -22c-47 -5 -86 -23 -142 -68l-164 -153l111 -328c22 -51 43 -71 74 -69l-6 -22h-255l6 22h12c24 0 40 16 40 40c0 9 -1 16 -7 32z" />
    <glyph glyph-name="Lambda" unicode="&#x39b;" horiz-adv-x="667" 
d="M373 450l-251 -344c-16 -21 -21 -34 -21 -49c0 -21 17 -35 41 -35h15l-5 -22h-174l6 22c20 3 45 27 88 84l418 556h25l-28 -572v-11c0 -37 13 -57 39 -57h12l-6 -22h-255l6 22h7c39 1 59 23 63 68z" />
    <glyph glyph-name="Mu" unicode="&#x39c;" horiz-adv-x="889" 
d="M418 184l328 478h191l-6 -22h-18c-35 -3 -52 -21 -65 -66l-130 -491c-2 -7 -3 -14 -3 -19c0 -25 17 -41 43 -42h29l-6 -22h-283l6 22h23c35 3 54 21 66 66l129 483l-388 -571h-17l-73 571l-121 -457c-4 -14 -6 -26 -6 -35c0 -32 24 -53 67 -57l-6 -22h-176l6 22
c37 5 63 37 78 97l130 490c-16 21 -27 25 -79 31l5 22h216z" />
    <glyph glyph-name="Nu" unicode="&#x39d;" horiz-adv-x="722" 
d="M552 211l91 346c5 16 7 31 7 43c0 27 -19 40 -61 40l6 22h167l-6 -22c-44 -5 -58 -23 -81 -108l-142 -532h-20l-259 562l-119 -448c-4 -14 -6 -26 -6 -35c0 -32 24 -53 67 -57l-6 -22h-176l6 22c37 5 63 37 78 97l128 483c-19 27 -39 37 -74 38l6 22h188z" />
    <glyph glyph-name="Xi" unicode="&#x39e;" horiz-adv-x="659" 
d="M473 223h-21c1 11 1 16 1 21c0 37 -30 57 -84 57h-76c-47 0 -80 -26 -99 -78h-21l64 240h21c-1 -13 -1 -17 -1 -21c0 -37 30 -57 85 -57h75c47 0 80 26 99 78h21zM566 185h18l-81 -185h-458l18 185h18c24 -55 76 -92 128 -91h206c43 -1 106 37 151 91zM675 662l-44 -167
h-18c-6 50 -52 79 -119 77h-186c-54 2 -105 -28 -133 -77h-18l44 167h474z" />
    <glyph glyph-name="Omicron" unicode="&#x39f;" horiz-adv-x="722" 
d="M475 671c139 0 225 -87 225 -228c0 -237 -194 -452 -409 -452c-65 0 -124 22 -159 61c-38 41 -60 102 -60 165c0 132 66 274 167 363c64 55 156 91 236 91zM463 631c-57 0 -108 -34 -145 -97c-56 -94 -104 -267 -104 -377c0 -76 38 -127 94 -127c49 0 101 31 133 80
c62 95 116 279 116 396c0 76 -37 125 -94 125z" />
    <glyph glyph-name="Pi" unicode="&#x3a0;" horiz-adv-x="778" 
d="M811 662l-6 -22h-12c-35 -3 -52 -21 -65 -66l-130 -491c-2 -6 -3 -13 -3 -18c0 -26 16 -42 43 -43h25l-6 -22h-298l6 22h36c34 3 52 21 64 66l127 474c1 6 2 12 2 18c0 26 -17 43 -43 43h-126c-35 -3 -52 -21 -65 -66l-126 -474c-2 -7 -2 -10 -2 -19c0 -25 17 -41 43 -42
h28l-6 -22h-273l6 22h8c34 3 52 21 64 66l131 491c2 6 2 10 2 18c0 26 -16 42 -43 43h-21l6 22h634z" />
    <glyph glyph-name="Rho" unicode="&#x3a1;" horiz-adv-x="611" 
d="M294 303l-58 -220c-2 -6 -3 -14 -3 -18c0 -26 17 -43 43 -43h39l-6 -22h-280l6 22h4c35 3 53 21 65 66l131 491c1 6 2 11 2 18c0 26 -16 42 -43 43h-27l6 22h247c122 0 202 -64 202 -161c0 -116 -108 -203 -253 -203c-22 0 -39 1 -75 5zM380 624l-75 -281
c16 -3 23 -4 35 -4c50 0 79 18 104 65c19 35 33 89 33 125c0 60 -33 92 -97 95z" />
    <glyph glyph-name="Sigma" unicode="&#x3a3;" horiz-adv-x="619" 
d="M619 663l-29 -161h-59l1 21c1 7 1 11 1 14c0 40 -32 71 -72 71h-184l93 -242l-201 -204c-28 -28 -35 -38 -35 -48c0 -8 9 -12 30 -12h229c72 2 83 11 119 88h62l-101 -190h-573l315 312l-138 351h542z" />
    <glyph glyph-name="Tau" unicode="&#x3a4;" horiz-adv-x="611" 
d="M475 620l-143 -537c-1 -7 -2 -12 -2 -19c0 -25 17 -42 43 -42h45l-6 -22h-323l6 22h41c35 3 53 21 65 66l142 532c-79 -4 -142 -46 -184 -122h-23l44 164h470l-43 -164h-26c1 10 2 18 2 25c0 29 -15 57 -40 76c-19 14 -34 19 -68 21z" />
    <glyph glyph-name="Upsilon" unicode="&#x3a5;" horiz-adv-x="611" 
d="M396 336l162 210c13 18 20 36 20 52c0 23 -23 42 -50 42h-18l6 22h190l-6 -22c-22 -7 -48 -30 -82 -72l-212 -281l-55 -204c-1 -6 -2 -11 -2 -18c0 -26 17 -43 43 -43h35l-6 -22h-306l6 22h32c35 3 53 21 65 66l54 205l-67 253c-21 73 -38 94 -77 94h-13l6 22h290l-6 -22
h-18c-39 0 -58 -17 -58 -54c0 -9 2 -19 4 -29z" />
    <glyph glyph-name="Phi" unicode="&#x3a6;" horiz-adv-x="789" 
d="M378 692h264l-6 -22h-12c-34 -3 -52 -20 -64 -64c149 -13 235 -100 235 -238c0 -136 -77 -242 -209 -286c-46 -16 -86 -21 -172 -24c-3 -10 -4 -19 -4 -25c0 -24 18 -40 43 -41h29l-6 -22h-267l6 22h8c36 4 52 20 65 68c-61 5 -88 11 -125 31c-77 41 -116 110 -116 206
c0 136 77 241 210 287c41 14 90 21 177 24c2 8 3 16 3 21c0 24 -18 40 -43 41h-22zM296 89l130 488c-65 -5 -94 -15 -127 -45c-65 -58 -112 -181 -112 -292c0 -90 36 -140 109 -151zM552 577l-130 -489c55 3 85 15 123 49c64 58 109 175 109 285c0 49 -10 86 -32 116
c-16 23 -27 29 -70 39z" />
    <glyph glyph-name="Chi" unicode="&#x3a7;" horiz-adv-x="667" 
d="M325 263l-132 -146c-23 -27 -33 -44 -33 -60c0 -23 18 -35 51 -35h13l-6 -22h-205l6 22c36 9 79 43 134 106l159 175l-88 254c-15 52 -38 78 -73 82l-13 1l6 22h263l-5 -22h-14c-20 0 -35 -19 -35 -44c0 -11 2 -20 11 -46l46 -138l116 130c26 30 33 42 33 62
c0 22 -14 36 -36 36h-11l6 22h192l-6 -22c-32 -3 -68 -34 -162 -137l-118 -131l79 -234c34 -95 48 -113 87 -116l-6 -22h-265l6 22h13c28 0 48 20 48 49c0 11 -2 21 -5 32z" />
    <glyph glyph-name="Psi" unicode="&#x3a8;" horiz-adv-x="800" 
d="M900 648l-11 -25c-13 5 -19 7 -26 7c-24 0 -33 -15 -54 -93l-16 -61c-34 -156 -140 -238 -333 -257l-37 -136c-1 -6 -2 -13 -2 -18c0 -26 17 -43 43 -43h35l-6 -22h-293l6 22h21c39 3 62 22 75 66l35 134c-80 7 -119 24 -155 69c-30 37 -48 86 -48 133c0 21 4 45 12 76
l16 59c5 20 6 25 6 36c0 19 -9 30 -25 30c-7 0 -12 -1 -25 -5l-3 26c51 22 75 28 105 28c45 0 73 -28 73 -73c0 -25 -1 -29 -24 -116c-12 -46 -18 -82 -18 -107c0 -43 17 -81 46 -103c12 -9 23 -14 49 -20l86 324c2 6 3 13 3 18c0 26 -20 42 -53 43h-22l6 22h271l-6 -22h-12
c-35 -3 -52 -21 -65 -66l-86 -322c111 23 167 92 202 247c23 91 35 123 56 146c19 21 44 31 78 31c32 0 55 -7 96 -28z" />
    <glyph glyph-name="uni03A9" unicode="&#x3a9;" horiz-adv-x="746" 
d="M708 176l-81 -176h-315l25 100c73 25 106 52 144 116c52 89 86 205 86 293c0 39 -12 75 -32 95c-25 25 -72 42 -119 42c-87 0 -137 -39 -186 -144c-36 -77 -54 -154 -54 -233c0 -83 20 -122 84 -169l-25 -100h-315l7 176h61c1 -6 1 -12 1 -14c-2 -41 15 -59 57 -59h42
c32 0 50 -2 80 -6l-3 13c-42 9 -61 19 -82 41c-34 36 -53 92 -53 157c0 72 23 146 63 206c73 110 186 165 336 165c115 0 190 -27 236 -86c30 -37 48 -88 48 -136c0 -87 -42 -192 -105 -264c-44 -49 -89 -71 -171 -83l-10 -13c32 4 52 6 83 6h42c54 1 67 11 94 73h62z" />
    <glyph glyph-name="Iotadieresis" unicode="&#x3aa;" horiz-adv-x="389" 
d="M290 22l-6 -22h-273l6 22h8c34 3 52 21 64 66l131 491c2 6 2 10 2 18c0 26 -16 42 -43 43h-21l6 22h270l-6 -22h-12c-34 -3 -52 -21 -64 -66l-131 -491c-2 -7 -2 -10 -2 -19c0 -25 17 -41 43 -42h28zM231 830c33 0 62 -29 62 -64s-27 -62 -61 -62c-35 0 -64 29 -64 64
s28 62 63 62zM426 830c34 0 63 -29 63 -64s-27 -62 -61 -62c-35 0 -64 29 -64 64s28 62 62 62z" />
    <glyph glyph-name="Upsilondieresis" unicode="&#x3ab;" horiz-adv-x="611" 
d="M396 336l162 210c13 18 20 36 20 52c0 23 -23 42 -50 42h-18l6 22h190l-6 -22c-22 -7 -48 -30 -82 -72l-212 -281l-55 -204c-1 -6 -2 -11 -2 -18c0 -26 17 -43 43 -43h35l-6 -22h-306l6 22h32c35 3 53 21 65 66l54 205l-67 253c-21 73 -38 94 -77 94h-13l6 22h290l-6 -22
h-18c-39 0 -58 -17 -58 -54c0 -9 2 -19 4 -29zM362 830c34 0 63 -29 63 -64c0 -34 -27 -62 -61 -62c-35 0 -64 29 -64 64s28 62 62 62zM559 830c33 0 62 -29 62 -64s-27 -62 -61 -62c-35 0 -64 29 -64 64s28 62 63 62z" />
    <glyph glyph-name="alphatonos" unicode="&#x3ac;" horiz-adv-x="553" 
d="M389 445h116l-129 -301c4 -73 6 -82 22 -82c22 0 39 20 73 87l19 -11c-36 -92 -77 -146 -112 -146c-12 0 -20 12 -25 35c-2 12 -2 12 -4 77c-56 -79 -106 -112 -172 -112c-80 0 -130 65 -130 168c0 147 110 293 220 293c53 0 78 -25 90 -87zM286 177l52 132
c-9 74 -27 104 -64 104c-36 0 -60 -31 -87 -108c-21 -64 -34 -135 -34 -195c0 -53 12 -84 33 -84c30 0 54 35 100 151zM352 522h-51c1 15 2 27 2 34c0 9 1 35 2 78c1 45 5 68 15 80c11 13 31 21 51 21c32 0 54 -18 54 -45c0 -26 -3 -34 -52 -126z" />
    <glyph glyph-name="epsilontonos" unicode="&#x3ad;" horiz-adv-x="410" 
d="M338 153l20 -11c-44 -104 -104 -150 -197 -150c-86 0 -147 50 -147 122c0 62 38 105 119 135c-36 26 -51 51 -51 85c0 69 80 119 190 119c73 0 119 -29 119 -76c0 -30 -22 -52 -51 -52c-30 0 -57 24 -57 49c0 3 0 3 3 17c1 1 1 3 1 4c0 14 -10 24 -24 24
c-48 0 -90 -63 -90 -135c0 -4 0 -12 1 -21c46 12 65 16 81 16c29 0 51 -16 51 -37c0 -25 -28 -44 -65 -44c-26 0 -45 6 -79 27c-24 -33 -34 -60 -34 -91c0 -50 31 -84 76 -84c54 0 98 34 134 103zM250 522l1 34c1 10 1 35 2 78c1 44 6 68 15 80c11 13 31 21 51 21
c33 0 54 -18 54 -46c0 -25 -3 -33 -52 -125l-16 -33l-4 -9h-51z" />
    <glyph glyph-name="etatonos" unicode="&#x3ae;" horiz-adv-x="549" 
d="M67 286l-17 10c45 102 101 157 160 157c35 0 60 -25 60 -58c0 -16 0 -16 -24 -116c31 63 48 91 75 121c33 37 61 53 91 53c38 0 64 -29 64 -73c0 -18 -3 -39 -9 -60l-128 -498h-116l122 473c7 27 9 40 9 51c0 12 -6 19 -16 19c-12 0 -28 -13 -43 -37
c-32 -50 -65 -116 -73 -146l-47 -182h-118l81 300c8 29 11 45 11 55c0 13 -5 20 -14 20c-17 0 -41 -31 -68 -89zM312 522l2 34l1 78c1 46 6 68 16 80c11 13 31 21 51 21c32 0 54 -18 54 -46c0 -25 -4 -34 -52 -125c-5 -9 -13 -26 -21 -42h-51z" />
    <glyph glyph-name="iotatonos" unicode="&#x3af;" horiz-adv-x="278" 
d="M231 123l18 -15c-24 -40 -36 -55 -58 -76c-33 -29 -54 -40 -81 -40c-44 0 -70 28 -70 75c0 16 3 34 9 54l62 211c4 14 8 35 8 44c0 14 -15 28 -31 28c-5 0 -12 -1 -19 -2l6 24l188 27l-104 -362c-4 -13 -5 -17 -5 -21c0 -7 5 -13 12 -13c13 0 32 19 65 66zM177 522l2 34
c0 10 1 35 2 78c1 45 5 68 15 80c11 13 31 21 51 21c32 0 54 -19 54 -46c0 -25 -4 -34 -52 -125l-16 -33l-5 -9h-51z" />
    <glyph glyph-name="upsilondieresistonos" unicode="&#x3b0;" horiz-adv-x="490" 
d="M61 291l-21 14c18 42 29 61 47 83c32 40 77 65 115 65c35 0 57 -24 57 -61c0 -16 -3 -34 -8 -57l-47 -182c-6 -24 -10 -46 -10 -59c0 -33 21 -58 50 -58c31 0 63 23 89 67c28 46 47 101 47 140c0 21 -5 43 -14 66c-4 8 -4 8 -23 32c-12 14 -18 32 -18 49
c0 36 23 63 55 63c41 0 65 -39 65 -106c0 -60 -21 -143 -53 -212c-45 -95 -107 -143 -184 -143c-72 0 -121 47 -121 116c0 36 6 65 41 195c11 40 13 51 13 62c0 9 -4 14 -13 14c-16 0 -38 -29 -67 -88zM295 596v7v26l-4 47c0 26 3 40 10 48c8 9 23 15 38 15
c24 0 41 -13 41 -32s-2 -22 -40 -83l-12 -22l-4 -6h-29zM216 598c29 0 54 -26 54 -57s-24 -56 -53 -56c-30 0 -55 26 -55 58c0 31 24 55 54 55zM401 598c29 0 54 -27 54 -57c0 -31 -24 -56 -53 -56c-30 0 -55 26 -55 58c0 31 24 55 54 55z" />
    <glyph glyph-name="alpha" unicode="&#x3b1;" horiz-adv-x="553" 
d="M387 444h116l-129 -300c4 -73 6 -82 22 -82c22 0 39 20 73 87l19 -12c-36 -92 -77 -145 -112 -145c-12 0 -20 12 -25 35c-2 12 -2 12 -4 77c-56 -79 -106 -112 -172 -112c-80 0 -130 65 -130 168c0 79 31 162 84 219c42 46 93 74 136 74c52 0 79 -26 90 -88zM284 177
l52 132c-9 73 -27 103 -64 103c-36 0 -60 -31 -87 -108c-21 -64 -34 -135 -34 -194c0 -53 12 -84 33 -84c30 0 54 35 100 151z" />
    <glyph glyph-name="beta" unicode="&#x3b2;" horiz-adv-x="512" 
d="M-27 -177l161 623c26 99 57 158 100 192c37 28 83 43 133 43c78 0 127 -42 127 -108c0 -59 -38 -107 -122 -156c57 -38 82 -84 82 -154c0 -136 -113 -271 -228 -271c-34 0 -54 13 -82 56l-58 -225h-113zM245 435l-91 -348c23 -42 38 -55 64 -55c22 0 42 15 59 43
c32 52 71 214 71 292c0 8 0 16 -1 33c-27 -19 -41 -25 -56 -25c-17 0 -31 13 -31 29c0 21 20 37 44 37c15 0 26 -3 50 -13c30 63 44 111 44 156c0 38 -15 63 -39 63c-10 0 -21 -4 -30 -11c-37 -28 -43 -42 -84 -201z" />
    <glyph glyph-name="gamma" unicode="&#x3b3;" horiz-adv-x="416" 
d="M33 292l-19 10c36 94 90 151 143 151c55 0 82 -56 82 -168c0 -63 -6 -122 -19 -203l26 32c59 74 59 74 71 90c28 40 39 67 39 94c0 19 -1 24 -13 60c-4 12 -6 24 -6 35c0 32 26 60 56 60c32 0 54 -28 54 -69c0 -57 -30 -120 -101 -208c-6 -7 -50 -58 -133 -153
c-24 -119 -37 -157 -63 -186c-18 -20 -35 -29 -56 -29c-31 0 -49 19 -49 54c0 48 22 95 79 171c8 100 10 130 10 190c0 62 -7 125 -17 146c-4 7 -9 11 -16 11c-18 0 -49 -40 -68 -88z" />
    <glyph glyph-name="delta" unicode="&#x3b4;" horiz-adv-x="512" 
d="M273 544l61 -45c13 -9 34 -29 51 -46c53 -55 80 -110 80 -167c0 -49 -24 -123 -57 -174c-48 -76 -135 -124 -224 -124c-99 0 -164 65 -164 165c0 73 28 151 74 211c36 46 69 67 138 90c-76 67 -98 96 -98 130c0 19 10 44 23 59c22 23 54 34 104 34c72 0 139 -12 217 -40
l-15 -62c-94 46 -160 69 -201 69c-26 0 -39 -10 -39 -28c0 -23 17 -47 50 -72zM268 420c-42 -20 -64 -49 -91 -117c-25 -64 -41 -141 -41 -194s29 -88 73 -88c26 0 53 14 69 36c41 56 72 150 72 219c0 48 -23 87 -82 144z" />
    <glyph glyph-name="epsilon" unicode="&#x3b5;" horiz-adv-x="410" 
d="M338 153l20 -11c-44 -104 -104 -150 -197 -150c-86 0 -147 50 -147 122c0 62 38 105 119 135c-36 26 -51 51 -51 85c0 69 80 119 190 119c73 0 119 -29 119 -76c0 -30 -22 -52 -51 -52c-30 0 -57 24 -57 49c0 3 0 3 3 17c1 1 1 3 1 4c0 14 -10 24 -24 24
c-48 0 -90 -63 -90 -135c0 -4 0 -12 1 -21c46 12 65 16 81 16c29 0 51 -16 51 -37c0 -25 -28 -44 -65 -44c-26 0 -45 6 -79 27c-24 -33 -34 -60 -34 -91c0 -50 31 -84 76 -84c54 0 98 34 134 103z" />
    <glyph glyph-name="zeta" unicode="&#x3b6;" horiz-adv-x="441" 
d="M284 724l5 -18c-49 -29 -62 -44 -62 -74c0 -22 9 -39 32 -61c69 54 124 78 179 78c38 0 62 -19 62 -49c0 -45 -59 -76 -146 -76c-37 0 -53 3 -85 16c-33 -54 -58 -108 -77 -167c-20 -66 -39 -177 -39 -234c0 -33 18 -52 50 -52c6 0 19 2 33 4c15 2 32 4 44 4
c47 0 73 -27 73 -76c0 -101 -107 -204 -213 -204c-44 0 -71 21 -71 56c0 37 25 61 64 61c18 0 26 -3 56 -20c12 -7 27 -11 41 -11c35 0 65 30 65 65c0 25 -14 38 -41 38c-13 0 -18 -1 -47 -7c-8 -2 -20 -3 -36 -3c-87 0 -127 42 -127 136c0 147 77 314 194 420
c-47 23 -74 51 -74 77c0 32 46 69 120 97z" />
    <glyph glyph-name="eta" unicode="&#x3b7;" horiz-adv-x="549" 
d="M67 286l-17 10c45 102 101 157 160 157c35 0 60 -25 60 -58c0 -16 0 -16 -24 -116c31 63 48 91 75 121c33 37 61 53 91 53c38 0 64 -29 64 -73c0 -18 -3 -39 -9 -60l-128 -498h-116l122 473c7 27 9 40 9 51c0 12 -6 19 -16 19c-12 0 -28 -13 -43 -37
c-32 -50 -65 -116 -73 -146l-47 -182h-118l81 300c8 29 11 45 11 55c0 13 -5 20 -14 20c-17 0 -41 -31 -68 -89z" />
    <glyph glyph-name="theta" unicode="&#x3b8;" horiz-adv-x="519" 
d="M357 670c54 0 84 -13 108 -46c21 -28 33 -74 33 -123c0 -93 -36 -249 -82 -353c-43 -98 -120 -156 -207 -156c-90 0 -138 61 -138 174c0 60 22 175 50 263c52 161 130 241 236 241zM361 336h-148c-33 -145 -41 -190 -41 -244c0 -41 17 -65 44 -65c30 0 58 28 77 75
c21 52 39 114 68 234zM222 373h145c22 99 29 144 29 198c0 43 -15 66 -42 66c-53 0 -82 -59 -132 -264z" />
    <glyph glyph-name="iota" unicode="&#x3b9;" horiz-adv-x="278" 
d="M231 123l18 -15c-24 -40 -36 -55 -58 -76c-33 -29 -54 -40 -81 -40c-44 0 -70 28 -70 75c0 16 3 34 9 54l62 211c4 14 8 35 8 44c0 14 -15 28 -31 28c-5 0 -12 -1 -19 -2l6 24l188 27l-104 -362c-4 -13 -5 -17 -5 -21c0 -7 5 -13 12 -13c13 0 32 19 65 66z" />
    <glyph glyph-name="kappa" unicode="&#x3ba;" horiz-adv-x="530" 
d="M295 288l69 -166c19 -46 26 -55 41 -55c20 0 30 11 53 55l19 -12c-25 -51 -32 -63 -47 -81c-18 -22 -43 -34 -73 -34c-37 0 -58 17 -76 61l-73 176l-59 -232h-111l85 331c9 35 9 35 9 43c0 15 -15 29 -32 29c-5 0 -11 -1 -19 -2l7 24l177 28l-55 -214
c132 142 140 150 173 174c37 28 67 40 100 40c34 0 54 -17 54 -44c0 -36 -26 -58 -71 -58c-12 0 -19 1 -27 2c-23 6 -39 9 -40 9c-20 0 -53 -23 -104 -74z" />
    <glyph glyph-name="lambda" unicode="&#x3bb;" horiz-adv-x="444" 
d="M-42 0l310 443c1 10 1 19 1 27c0 34 -7 46 -47 79c-20 17 -29 34 -29 55c0 41 23 66 61 66c43 0 68 -29 68 -79c0 -12 -2 -36 -5 -61c-15 -121 -31 -328 -31 -403c0 -36 11 -53 35 -53c21 0 33 10 63 53l17 -8c-29 -77 -73 -127 -112 -127c-18 0 -32 10 -40 30
c-6 12 -8 31 -8 67c0 56 4 104 15 166l-165 -255h-133z" />
    <glyph glyph-name="uni03BC" unicode="&#x3bc;" horiz-adv-x="556" 
d="M445 129l20 -8c-39 -84 -89 -129 -145 -129c-31 0 -53 18 -53 43c0 12 3 30 9 50c3 8 6 20 10 36c-75 -101 -108 -129 -150 -129c-18 0 -28 7 -40 27c-2 -17 -2 -25 -2 -37c0 -31 2 -52 8 -85c3 -13 4 -26 4 -36c0 -29 -25 -52 -56 -52s-53 23 -53 56c0 27 8 55 29 99
c10 22 17 37 19 42c5 12 12 36 22 72c9 37 19 75 29 112l66 254h114l-83 -323c-6 -19 -6 -19 -6 -26c0 -13 5 -19 15 -19c17 0 30 13 59 57c28 43 39 65 59 119l50 192h114l-90 -349c-5 -17 -6 -23 -6 -27c0 -5 3 -9 8 -9c10 0 28 25 49 70z" />
    <glyph glyph-name="nu" unicode="&#x3bd;" horiz-adv-x="444" 
d="M70 298l-26 14c21 85 70 141 124 141c42 0 71 -34 80 -92c5 -37 8 -86 8 -145c0 -15 0 -25 -1 -95c79 82 110 129 110 168c0 14 -6 30 -18 47c-21 29 -26 41 -26 62c0 30 22 55 48 55c36 0 66 -36 66 -78c0 -33 -18 -87 -44 -128c-40 -66 -86 -120 -172 -201
c-28 -26 -35 -33 -52 -53l-32 7c9 54 11 83 11 139c0 190 -5 247 -21 247c-17 0 -41 -38 -55 -88z" />
    <glyph glyph-name="xi" unicode="&#x3be;" horiz-adv-x="449" 
d="M275 725l7 -21c-40 -18 -59 -38 -59 -61c0 -20 11 -38 34 -53c70 42 111 55 171 55c46 0 73 -18 73 -49c0 -39 -47 -65 -118 -65c-41 0 -70 6 -122 27c-22 -42 -32 -77 -32 -116c0 -17 2 -30 11 -56c54 25 86 33 127 33c42 0 66 -18 66 -49c0 -36 -35 -57 -94 -57
c-36 0 -61 8 -112 34c-59 -55 -92 -125 -92 -195c0 -47 19 -65 70 -65c9 0 24 2 40 4c17 2 35 4 46 4c46 0 72 -27 72 -76c0 -101 -107 -204 -213 -204c-44 0 -71 21 -71 56c0 37 25 61 64 61c18 0 26 -3 56 -20c12 -7 27 -11 41 -11c35 0 65 30 65 65c0 24 -14 38 -38 38
c-8 0 -21 -1 -35 -4c-23 -4 -43 -6 -58 -6c-87 0 -143 51 -143 131c0 67 33 133 95 190c25 23 41 33 76 51c-39 26 -55 51 -55 84c0 27 18 63 44 90c10 10 21 18 42 31c-53 24 -72 41 -72 64c0 33 39 64 114 90z" />
    <glyph glyph-name="omicron" unicode="&#x3bf;" 
d="M313 453c75 0 128 -64 128 -154c0 -106 -55 -208 -142 -267c-41 -27 -77 -40 -115 -40c-81 0 -134 61 -134 152c0 159 128 309 263 309zM295 419c-35 0 -66 -30 -85 -83c-29 -76 -57 -199 -57 -245c0 -40 19 -68 46 -68c30 0 54 23 74 69c34 80 64 208 64 271
c0 35 -16 56 -42 56z" />
    <glyph glyph-name="pi" unicode="&#x3c0;" horiz-adv-x="546" 
d="M582 444l-23 -91h-104c-23 -28 -28 -38 -37 -73l-34 -140c-7 -29 -7 -31 -7 -45c0 -21 7 -31 22 -31c12 0 21 3 45 12l-9 -36l-118 -47c-7 -3 -13 -5 -16 -5c-21 0 -49 38 -49 67c0 8 2 22 6 37l32 133c17 65 51 105 112 128h-167c-60 -207 -60 -207 -92 -274
c-29 -62 -61 -91 -103 -91c-32 0 -55 17 -55 39c0 28 14 52 42 72l16 10c40 25 45 32 83 114c18 42 30 77 44 129c-65 -2 -101 -19 -136 -64l-40 17l77 90c40 44 53 49 123 49h388z" />
    <glyph glyph-name="rho" unicode="&#x3c1;" horiz-adv-x="515" 
d="M-15 -178l99 386c33 126 46 157 86 193c37 33 88 52 137 52c87 0 144 -67 144 -169c0 -142 -113 -292 -219 -292c-37 0 -64 16 -80 49l-56 -219h-111zM217 290l-55 -211c17 -34 31 -47 53 -47c17 0 35 11 47 28c40 60 75 193 75 287c0 46 -14 72 -40 72
c-18 0 -33 -10 -46 -28c-10 -15 -20 -44 -34 -101z" />
    <glyph glyph-name="uni03C2" unicode="&#x3c2;" horiz-adv-x="446" 
d="M454 513l20 -6c-15 -55 -22 -76 -36 -101c-20 -37 -47 -55 -84 -55c-9 0 -35 2 -62 6c-16 2 -38 3 -51 3c-47 0 -63 -10 -77 -45c-13 -34 -23 -104 -23 -156c0 -47 16 -68 52 -68c9 0 18 1 29 3c23 3 30 4 42 4c50 0 76 -27 76 -79c0 -105 -107 -211 -212 -211
c-44 0 -71 22 -71 59c0 38 25 63 64 63c18 0 25 -3 55 -21c12 -8 28 -12 41 -12c35 0 65 31 65 68c0 24 -14 39 -39 39c-10 0 -22 -2 -40 -5c-20 -4 -25 -5 -38 -5c-80 0 -128 55 -128 146c0 68 24 123 88 198c61 73 119 108 177 108c10 0 23 -1 40 -4c11 -2 22 -3 29 -3
c37 0 59 20 83 74z" />
    <glyph glyph-name="sigma" unicode="&#x3c3;" horiz-adv-x="539" 
d="M575 444l-22 -91h-172c26 -9 39 -16 52 -28c21 -20 34 -54 34 -91c0 -132 -128 -246 -275 -246c-99 0 -165 64 -165 162c0 89 47 183 118 238c57 44 103 56 211 56h219zM336 353h-24c-51 0 -76 -8 -101 -31c-35 -33 -68 -142 -68 -222c0 -49 27 -79 70 -79
c39 0 67 24 92 78c26 57 46 139 46 193c0 25 -3 38 -15 61z" />
    <glyph glyph-name="tau" unicode="&#x3c4;" horiz-adv-x="444" 
d="M476 444l-23 -91h-151c-23 -24 -30 -41 -45 -99l-17 -73c-12 -49 -18 -81 -18 -96c0 -16 6 -22 20 -22c13 0 25 3 54 14l-9 -38l-126 -49c-4 -1 -7 -2 -11 -2c-26 0 -52 35 -52 69c0 9 2 22 4 31l33 137c19 68 56 109 115 128h-48c-89 1 -129 -16 -173 -74l-42 15l87 115
c24 29 40 35 106 35h296z" />
    <glyph glyph-name="upsilon" unicode="&#x3c5;" horiz-adv-x="490" 
d="M61 291l-21 14c18 42 29 61 47 83c32 40 77 65 115 65c35 0 57 -24 57 -61c0 -16 -3 -34 -8 -57l-47 -182c-6 -24 -10 -46 -10 -59c0 -33 21 -58 50 -58c31 0 63 23 89 67c28 46 47 101 47 140c0 21 -5 43 -14 66c-4 8 -4 8 -23 32c-12 14 -18 32 -18 49
c0 36 23 63 55 63c41 0 65 -39 65 -106c0 -60 -21 -143 -53 -212c-45 -95 -107 -143 -184 -143c-72 0 -121 47 -121 116c0 36 6 65 41 195c11 40 13 51 13 62c0 9 -4 14 -13 14c-16 0 -38 -29 -67 -88z" />
    <glyph glyph-name="phi" unicode="&#x3c6;" horiz-adv-x="585" 
d="M215 -190h-93l43 174c-42 5 -64 12 -88 29c-42 29 -67 83 -67 146c0 83 39 168 105 229c52 48 99 68 166 71l-4 -18c-33 -11 -56 -30 -77 -64c-38 -60 -75 -197 -75 -279c0 -34 11 -63 27 -75c4 -3 11 -6 21 -9l71 287c14 57 31 92 54 115c26 27 64 43 102 43
c82 0 147 -71 147 -160c0 -80 -44 -175 -110 -237c-52 -49 -113 -75 -179 -78zM332 279l-66 -265c30 8 45 17 67 39c44 45 93 194 93 281c0 39 -16 70 -38 70c-20 0 -31 -23 -56 -125z" />
    <glyph glyph-name="chi" unicode="&#x3c7;" horiz-adv-x="465" 
d="M461 445l-226 -331c4 -165 20 -229 60 -229c26 0 46 24 69 82l21 -8c-31 -93 -75 -151 -112 -151c-30 0 -47 30 -57 102c-8 53 -12 105 -13 159l-163 -247h-110l248 361c-9 147 -15 159 -74 170c-29 8 -44 25 -44 53c0 30 20 47 55 47c67 0 84 -44 93 -231l146 223h107z
" />
    <glyph glyph-name="psi" unicode="&#x3c8;" horiz-adv-x="668" 
d="M52 292l-20 13c42 92 101 148 157 148c36 0 60 -24 60 -60c0 -15 -3 -33 -10 -59l-22 -86c-18 -72 -24 -101 -24 -126c0 -55 26 -90 70 -91l106 414h92l-95 -419c78 14 116 39 155 102c26 41 42 93 42 131c0 26 -4 39 -24 72c-15 25 -21 42 -21 61c0 35 24 61 56 61
c38 0 60 -30 60 -83c0 -93 -35 -201 -87 -271c-46 -63 -99 -92 -189 -104l-39 -173h-110l46 178c-99 0 -167 57 -167 141c0 30 5 56 29 151l8 33c9 34 9 34 9 41c0 8 -4 14 -10 14c-18 0 -47 -36 -72 -88z" />
    <glyph glyph-name="omega" unicode="&#x3c9;" horiz-adv-x="723" 
d="M255 451l41 -13c-56 -85 -102 -226 -102 -316c0 -50 19 -87 45 -87c25 0 52 21 92 71c-8 50 -10 74 -10 105c0 82 35 141 83 141c29 0 48 -27 48 -68c0 -55 -23 -108 -82 -189c19 -49 38 -69 65 -69c66 0 143 113 143 209c0 24 -6 45 -19 64c-5 8 -5 8 -39 46
c-11 13 -18 33 -18 51c0 32 24 57 55 57c47 0 76 -48 76 -127c0 -173 -95 -334 -198 -334c-42 0 -63 17 -91 76c-48 -54 -86 -76 -133 -76c-79 0 -128 64 -128 165c0 76 29 152 81 212c25 29 47 49 91 82z" />
    <glyph glyph-name="iotadieresis" unicode="&#x3ca;" horiz-adv-x="278" 
d="M231 123l18 -15c-24 -40 -36 -55 -58 -76c-33 -29 -54 -40 -81 -40c-44 0 -70 28 -70 75c0 16 3 34 9 54l62 211c4 14 8 35 8 44c0 14 -15 28 -31 28c-5 0 -12 -1 -19 -2l6 24l188 27l-104 -362c-4 -13 -5 -17 -5 -21c0 -7 5 -13 12 -13c13 0 32 19 65 66zM158 651
c32 0 60 -29 60 -64c0 -34 -26 -61 -59 -61c-34 0 -61 29 -61 64c0 34 26 61 60 61zM297 651c32 0 60 -29 60 -64c0 -34 -26 -61 -59 -61c-34 0 -61 29 -61 64c0 34 26 61 60 61z" />
    <glyph glyph-name="upsilondieresis" unicode="&#x3cb;" horiz-adv-x="490" 
d="M61 291l-21 14c18 42 29 61 47 83c32 40 77 65 115 65c35 0 57 -24 57 -61c0 -16 -3 -34 -8 -57l-47 -182c-6 -24 -10 -46 -10 -59c0 -33 21 -58 50 -58c31 0 63 23 89 67c28 46 47 101 47 140c0 21 -5 43 -14 66c-4 8 -4 8 -23 32c-12 14 -18 32 -18 49
c0 36 23 63 55 63c41 0 65 -39 65 -106c0 -60 -21 -143 -53 -212c-45 -95 -107 -143 -184 -143c-72 0 -121 47 -121 116c0 36 6 65 41 195c11 40 13 51 13 62c0 9 -4 14 -13 14c-16 0 -38 -29 -67 -88zM251 651c32 0 60 -29 60 -64c0 -34 -26 -61 -59 -61
c-34 0 -61 29 -61 64c0 34 26 61 60 61zM417 651c32 0 60 -29 60 -64c0 -34 -26 -61 -59 -61c-34 0 -61 29 -61 64c0 34 26 61 60 61z" />
    <glyph glyph-name="omicrontonos" unicode="&#x3cc;" 
d="M313 453c75 0 128 -64 128 -154c0 -106 -55 -208 -142 -267c-41 -27 -77 -40 -115 -40c-81 0 -134 61 -134 152c0 159 128 309 263 309zM295 419c-35 0 -66 -30 -85 -83c-29 -76 -57 -199 -57 -245c0 -40 19 -68 46 -68c30 0 54 23 74 69c34 80 64 208 64 271
c0 35 -16 56 -42 56zM287 522v11c1 21 2 34 2 39l1 62c1 45 6 68 16 80c10 13 31 21 51 21c32 0 54 -19 54 -46c0 -25 -3 -32 -52 -125c-11 -21 -15 -28 -21 -42h-51z" />
    <glyph glyph-name="upsilontonos" unicode="&#x3cd;" horiz-adv-x="490" 
d="M61 291l-21 14c18 42 29 61 47 83c32 40 77 65 115 65c35 0 57 -24 57 -61c0 -16 -3 -34 -8 -57l-47 -182c-6 -24 -10 -46 -10 -59c0 -33 21 -58 50 -58c31 0 63 23 89 67c28 46 47 101 47 140c0 21 -5 43 -14 66c-4 8 -4 8 -23 32c-12 14 -18 32 -18 49
c0 36 23 63 55 63c41 0 65 -39 65 -106c0 -60 -21 -143 -53 -212c-45 -95 -107 -143 -184 -143c-72 0 -121 47 -121 116c0 36 6 65 41 195c11 40 13 51 13 62c0 9 -4 14 -13 14c-16 0 -38 -29 -67 -88zM281 522v11l2 39c2 106 3 121 12 135c9 17 32 28 56 28
c32 0 54 -19 54 -46c0 -25 -4 -34 -53 -125c-5 -11 -12 -25 -20 -42h-51z" />
    <glyph glyph-name="omegatonos" unicode="&#x3ce;" horiz-adv-x="723" 
d="M400 522l1 11l2 39c2 106 3 121 11 135c10 17 32 28 56 28c32 0 54 -18 54 -46c0 -25 -4 -34 -52 -125l-16 -33l-4 -9h-52zM255 451l41 -13c-56 -85 -102 -226 -102 -316c0 -50 19 -87 45 -87c25 0 52 21 92 71c-8 50 -10 74 -10 105c0 82 35 141 83 141
c29 0 48 -27 48 -68c0 -55 -23 -108 -82 -189c19 -49 38 -69 65 -69c66 0 143 113 143 209c0 24 -6 45 -19 64c-5 8 -5 8 -39 46c-11 13 -18 33 -18 51c0 32 24 57 55 57c47 0 76 -48 76 -127c0 -173 -95 -334 -198 -334c-42 0 -63 17 -91 76c-48 -54 -86 -76 -133 -76
c-79 0 -128 64 -128 165c0 76 29 152 81 212c25 29 47 49 91 82z" />
    <glyph glyph-name="theta1" unicode="&#x3d1;" horiz-adv-x="527" 
d="M31 181l-18 12c40 80 97 132 144 132c34 0 59 -25 59 -60c0 -21 -5 -44 -17 -85c-18 -58 -22 -77 -22 -100c0 -32 17 -54 42 -54c27 0 58 26 75 64c22 49 49 132 77 242c-72 8 -103 16 -138 38c-49 31 -75 75 -75 128c0 103 88 184 198 184c101 0 160 -64 160 -174
c0 -34 -7 -74 -26 -153l52 -2l-10 -34c-22 2 -26 2 -49 3c-58 -230 -143 -331 -278 -331c-83 0 -131 42 -131 114c0 26 4 48 16 88c11 34 13 41 13 46c0 6 -5 12 -10 12c-14 0 -33 -22 -62 -70zM380 370c25 118 31 151 31 187c0 55 -23 91 -60 91c-56 0 -104 -73 -104 -159
c0 -69 41 -106 133 -119z" />
    <glyph glyph-name="phi1" unicode="&#x3d5;" horiz-adv-x="579" 
d="M341 -15l-35 -173h-114l39 173c-111 5 -175 71 -175 182c0 159 126 295 283 305c6 34 9 71 9 120c0 58 36 97 89 97c36 0 57 -19 57 -52c0 -16 -4 -30 -19 -67c-19 -46 -25 -64 -34 -98c112 -5 176 -71 176 -183c0 -82 -39 -168 -102 -227c-50 -46 -106 -71 -174 -77z
M237 12l97 435c-38 -10 -72 -36 -105 -83c-41 -57 -62 -129 -62 -210c0 -76 28 -133 70 -142zM435 447l-88 -434c92 26 161 148 161 287c0 83 -26 136 -73 147z" />
    <glyph glyph-name="omega1" unicode="&#x3d6;" horiz-adv-x="756" 
d="M110 494l172 7h30c77 0 139 -11 179 -31c77 -39 114 -102 114 -192c0 -70 -19 -127 -63 -189c-48 -69 -94 -99 -148 -99c-52 0 -82 31 -97 101c-58 -73 -104 -101 -164 -101c-74 0 -120 57 -120 148c0 112 68 239 172 319l-117 -6zM334 121c14 -36 38 -55 72 -55
c82 0 149 94 149 209c0 85 -39 137 -126 167c-50 18 -67 20 -160 20c-54 -38 -72 -61 -96 -127c-24 -67 -39 -139 -39 -186c0 -54 22 -86 61 -86c32 0 66 21 92 56c-8 31 -11 52 -11 85c0 89 33 144 86 144c28 0 45 -19 45 -53c0 -43 -26 -103 -73 -174z" />
    <glyph glyph-name="uni0400" unicode="&#x400;" horiz-adv-x="667" 
d="M614 192l-58 -192h-548v25c51 8 63 19 79 71l119 445c6 22 10 46 10 59c0 11 -4 20 -10 24c-7 4 -28 9 -63 14v24h534l-41 -188l-27 5c0 62 -7 87 -30 110c-27 27 -81 42 -153 42c-40 0 -52 -9 -62 -44l-59 -221c131 -1 156 12 202 105l28 -4l-72 -270l-27 5
c2 19 3 30 3 43c0 69 -29 88 -143 90l-54 -207c-4 -14 -5 -19 -7 -25c-5 -19 -8 -30 -8 -36c0 -25 17 -35 61 -35c85 0 152 18 207 57c39 27 60 52 94 108zM504 716h-45l-132 88c-22 15 -34 31 -34 47c0 24 21 44 44 44c20 0 40 -12 56 -33z" />
    <glyph glyph-name="afii10023" unicode="&#x401;" horiz-adv-x="667" 
d="M318 331l-60 -224c-3 -13 -5 -25 -5 -33c0 -24 22 -39 57 -39c80 0 172 47 255 131h18l-62 -166h-477l6 22h6c35 3 53 21 65 66l131 491c1 6 2 11 2 17c0 27 -16 43 -43 44h-25l6 22h475l-41 -154h-18c-6 75 -69 120 -161 117h-51l-68 -258h42c71 -1 121 31 150 96h21
l-61 -230h-21c3 24 3 26 3 33c0 42 -29 65 -81 65h-63zM348 853c36 0 66 -30 66 -66c0 -34 -30 -63 -66 -63c-33 0 -63 30 -63 64c0 36 28 65 63 65zM558 853c36 0 66 -30 66 -66c0 -34 -30 -63 -66 -63c-33 0 -63 30 -63 64c0 36 28 65 63 65z" />
    <glyph glyph-name="afii10051" unicode="&#x402;" horiz-adv-x="818" 
d="M491 620l-70 -263c58 14 97 20 143 20c110 0 175 -52 175 -141c0 -133 -104 -243 -231 -243c-71 0 -119 38 -119 95c0 40 24 66 60 66c34 0 56 -21 56 -54c0 -14 -4 -24 -14 -36c-7 -6 -8 -9 -8 -16c0 -11 7 -18 19 -18c25 0 46 19 63 56c20 45 31 94 31 140
c0 64 -31 96 -92 96c-29 0 -57 -4 -95 -13l-83 -309h-221l6 22h41c35 3 53 21 65 66l142 532c-79 -4 -142 -46 -184 -122h-23l44 164h542l-43 -164h-26c1 10 2 18 2 25c0 29 -15 58 -40 75c-21 16 -45 22 -84 22h-56z" />
    <glyph glyph-name="afii10052" unicode="&#x403;" horiz-adv-x="604" 
d="M325 0h-273l6 22h8c35 3 52 21 64 66l131 491c2 5 2 10 2 17c0 26 -16 43 -43 44h-21l5 22h468l-44 -163h-20c-11 86 -60 126 -156 125h-46l-144 -541c-2 -7 -2 -10 -2 -19c0 -25 17 -41 43 -42h28zM446 716h-49l120 130c35 37 51 49 69 49c26 0 48 -21 48 -46
c0 -19 -9 -30 -39 -47z" />
    <glyph glyph-name="afii10053" unicode="&#x404;" horiz-adv-x="657" 
d="M691 675l-53 -200h-20c-5 54 -13 82 -35 112c-24 33 -56 50 -96 50c-59 0 -121 -34 -172 -94c-42 -49 -62 -91 -90 -187h86c70 0 117 29 154 96h19l-62 -234h-19l-1 12c-2 65 -29 91 -94 89h-92c-6 -36 -8 -52 -8 -77c0 -127 63 -204 166 -204c37 0 73 10 107 29
c36 21 56 40 90 88l19 -15c-30 -45 -47 -64 -75 -87c-54 -42 -117 -64 -189 -64c-157 0 -258 110 -258 279c0 102 39 198 112 273c80 83 195 134 304 134c42 0 77 -6 111 -20c17 -6 24 -8 33 -8c21 0 36 10 43 28h20z" />
    <glyph glyph-name="afii10054" unicode="&#x405;" horiz-adv-x="556" 
d="M572 668l-47 -214h-23c1 7 1 13 1 17c0 89 -65 161 -144 161c-55 0 -95 -44 -95 -103c0 -28 11 -58 33 -87c11 -15 24 -29 75 -75c80 -74 107 -119 107 -181c0 -109 -100 -194 -228 -194c-41 0 -62 4 -150 26c-8 2 -17 3 -26 3c-21 0 -33 -7 -45 -27h-25l50 244h25
c-1 -13 -2 -23 -2 -29c0 -43 20 -98 47 -130c24 -29 67 -50 102 -50c64 0 121 57 121 120c0 25 -9 51 -28 76c-9 12 -20 23 -74 72c-75 70 -108 129 -108 194c0 105 78 178 190 178c31 0 71 -7 140 -25c13 -3 25 -5 32 -5c27 0 43 9 51 29h21z" />
    <glyph glyph-name="afii10055" unicode="&#x406;" horiz-adv-x="389" 
d="M290 22l-6 -22h-273l6 22h8c34 3 52 21 64 66l131 491c2 6 2 10 2 18c0 26 -16 42 -43 43h-21l5 22h271l-6 -22h-12c-34 -3 -52 -21 -64 -66l-131 -491c-2 -7 -2 -10 -2 -19c0 -25 17 -41 43 -42h28z" />
    <glyph glyph-name="afii10056" unicode="&#x407;" horiz-adv-x="389" 
d="M290 22l-6 -22h-273l6 22h8c34 3 52 21 64 66l131 491c2 6 2 10 2 18c0 26 -16 42 -43 43h-21l5 22h271l-6 -22h-12c-34 -3 -52 -21 -64 -66l-131 -491c-2 -7 -2 -10 -2 -19c0 -25 17 -41 43 -42h28zM220 853c36 0 66 -30 66 -66c0 -34 -30 -63 -66 -63
c-33 0 -63 30 -63 64c0 36 28 65 63 65zM429 853c36 0 66 -30 66 -66c0 -34 -30 -63 -66 -63c-33 0 -63 30 -63 64c0 36 28 65 63 65z" />
    <glyph glyph-name="afii10057" unicode="&#x408;" 
d="M214 640l6 22h273l-6 -22h-8c-34 -3 -52 -21 -64 -66l-109 -408c-28 -108 -103 -175 -193 -175c-63 0 -110 43 -110 100c0 42 27 74 62 74c33 0 54 -20 54 -52c0 -19 -3 -26 -19 -50c-3 -4 -5 -9 -5 -15c0 -10 9 -18 20 -18c16 0 27 14 36 47l133 502c2 6 3 13 3 18
c0 26 -17 42 -43 43h-30z" />
    <glyph glyph-name="afii10058" unicode="&#x409;" horiz-adv-x="908" 
d="M503 624h-155l-52 -196c-97 -362 -141 -439 -253 -439c-54 0 -88 31 -88 78c0 38 25 64 61 64c34 0 54 -22 55 -61c1 -16 7 -23 17 -23c45 0 92 112 163 381l24 92c10 38 12 50 12 63c0 33 -26 57 -62 57h-14l7 22h483l-6 -22h-12c-30 -3 -49 -19 -58 -50l-6 -16
l-54 -202c107 -4 141 -11 179 -37c45 -32 72 -82 72 -133c0 -113 -97 -202 -219 -202h-323l6 22h16c34 3 52 21 64 66zM554 331l-78 -292c20 -4 29 -5 43 -5c52 0 94 21 122 63c23 32 38 83 38 125c0 43 -21 82 -52 97c-17 9 -37 12 -73 12z" />
    <glyph glyph-name="afii10059" unicode="&#x40a;" horiz-adv-x="976" 
d="M810 662l-6 -22h-12c-31 -3 -49 -19 -58 -50l-6 -16l-57 -212c108 -3 142 -10 180 -35c46 -30 74 -78 74 -126c0 -112 -98 -201 -219 -201h-343l6 22h36c34 3 52 21 64 66l62 233h-230l-63 -238c-2 -6 -2 -10 -2 -18c0 -25 17 -42 43 -43h28l-6 -22h-273l6 22h8
c35 3 52 21 64 66l131 491c2 6 2 10 2 18c0 26 -16 42 -43 43h-21l5 22h297l-5 -22h-39c-34 -3 -52 -21 -64 -66l-57 -212h230l58 217c2 6 2 10 2 18c0 26 -16 42 -43 43h-26l6 22h271zM661 322l-76 -283c20 -4 29 -5 43 -5c52 0 94 21 122 63c22 31 37 81 37 120
c0 66 -42 105 -112 105h-14z" />
    <glyph glyph-name="afii10060" unicode="&#x40b;" horiz-adv-x="811" 
d="M459 620l-70 -264c69 17 101 22 148 22c107 0 163 -37 163 -106c0 -19 -3 -40 -9 -62l-34 -127c-1 -6 -2 -12 -2 -19c0 -25 17 -41 43 -42h28l-5 -22h-274l6 22h8c35 3 52 21 65 66l27 104c14 51 16 61 16 76c0 36 -29 56 -81 56c-32 0 -60 -4 -111 -15l-61 -226
c-1 -7 -2 -12 -2 -19c0 -25 17 -42 43 -42h45l-6 -22h-323l6 22h41c35 3 53 21 65 66l142 532c-79 -4 -142 -46 -184 -122h-23l70 164h514l-43 -164h-24c1 10 2 18 2 25c0 29 -15 58 -40 76c-20 15 -41 21 -78 21h-62z" />
    <glyph glyph-name="afii10061" unicode="&#x40c;" horiz-adv-x="678" 
d="M312 353l-72 -270c-2 -6 -2 -10 -2 -18c0 -26 17 -43 43 -43h31l-6 -22h-273l6 22h9c35 3 53 21 65 66l131 491c1 7 2 12 2 19c0 25 -17 42 -43 42h-31l6 22h285l-6 -22h-22c-34 -3 -52 -21 -64 -66l-57 -215l186 175c26 24 42 52 42 72c0 19 -13 34 -30 34h-12l6 22h223
l-5 -22c-47 -5 -86 -23 -142 -68l-164 -153l111 -328c22 -51 43 -71 74 -69l-6 -22h-255l6 22h12c24 0 40 16 40 40c0 9 -1 16 -7 32zM494 716h-48l120 130c34 37 51 49 68 49c26 0 48 -21 48 -46c0 -19 -9 -30 -38 -47z" />
    <glyph glyph-name="uni040D" unicode="&#x40d;" horiz-adv-x="778" 
d="M263 186l337 390c2 10 3 14 3 20c0 27 -16 43 -43 44h-21l5 22h271l-6 -22h-12c-35 -3 -52 -21 -64 -66l-131 -491c-2 -7 -3 -14 -3 -19c0 -25 17 -41 43 -42h29l-6 -22h-273l6 22h7c35 3 53 21 65 66l109 409l-340 -400l-4 -14c-2 -7 -2 -10 -2 -19c0 -25 17 -41 43 -42
h28l-6 -22h-273l6 22h8c34 3 52 21 64 66l131 491c2 6 2 10 2 18c0 26 -16 42 -43 43h-21l5 22h271l-6 -22h-12c-34 -3 -52 -21 -64 -66zM554 716h-44l-133 88c-22 15 -34 31 -34 47c0 23 21 44 45 44c19 0 39 -12 55 -33z" />
    <glyph glyph-name="afii10062" unicode="&#x40e;" horiz-adv-x="696" 
d="M574 796v11c-1 5 -1 8 -1 10c0 27 26 48 58 48c30 0 48 -17 48 -46c0 -60 -72 -100 -178 -100c-92 0 -147 30 -147 81c0 36 28 65 63 65c27 0 47 -16 47 -37c0 -7 -2 -16 -7 -28c-4 -10 -5 -13 -5 -17c0 -15 26 -28 56 -28c38 0 66 18 66 41zM431 284l161 235
c19 29 31 59 31 82c0 24 -15 39 -39 39h-12l6 22h212l-7 -22c-41 -1 -73 -28 -123 -99l-234 -343c-69 -100 -84 -120 -113 -149c-39 -41 -81 -59 -132 -59c-61 0 -96 30 -96 81c0 42 28 71 68 71c36 0 64 -24 64 -54c0 -5 -1 -10 -3 -17c-5 -12 -5 -13 -5 -18
c0 -9 6 -14 15 -14c6 0 19 6 34 17c28 20 46 40 78 89l-103 376c-24 97 -37 114 -89 119l6 22h279l-7 -22h-7c-39 0 -60 -15 -60 -42c0 -8 3 -32 6 -41z" />
    <glyph glyph-name="afii10145" unicode="&#x40f;" horiz-adv-x="778" 
d="M661 0h-191c-80 -2 -126 -51 -168 -175h-19l-1 29c-1 98 -31 145 -94 146h-162l6 22h8c35 3 52 20 64 65l131 492c2 6 2 10 2 18c0 26 -16 42 -43 43h-21l5 22h271l-6 -22h-12c-34 -3 -52 -21 -64 -66l-143 -537h229l144 542c1 6 2 10 2 18c0 26 -16 42 -43 43h-21l5 22
h271l-6 -22h-12c-34 -3 -52 -21 -64 -66l-131 -492c-2 -6 -2 -9 -2 -17c0 -26 16 -43 43 -43h28z" />
    <glyph glyph-name="afii10017" unicode="&#x410;" horiz-adv-x="667" 
d="M360 208h-163l-75 -102c-16 -21 -21 -34 -21 -49c0 -21 17 -35 41 -35h15l-5 -22h-174l6 22c20 3 46 27 88 84l418 556h25l-28 -573v-10c0 -38 13 -57 39 -57h12l-6 -22h-255l6 22h7c39 1 59 23 63 67zM363 250l10 200l-146 -200h136z" />
    <glyph glyph-name="afii10018" unicode="&#x411;" horiz-adv-x="635" 
d="M389 624l-67 -252c107 -4 141 -11 179 -37c45 -32 72 -82 72 -133c0 -113 -97 -202 -220 -202h-322l6 22h15c35 3 53 21 65 66l131 491c1 6 2 12 2 17c0 27 -17 43 -43 44h-28l6 22h459l-44 -163h-19c-11 86 -60 126 -157 125h-35zM311 331l-78 -292c19 -4 28 -5 43 -5
c52 0 94 21 122 63c23 32 38 83 38 125c0 43 -21 82 -52 97c-17 9 -37 12 -73 12z" />
    <glyph glyph-name="afii10019" unicode="&#x412;" horiz-adv-x="667" 
d="M182 662h245c126 0 194 -48 194 -136c0 -55 -28 -99 -82 -134c-39 -25 -67 -34 -117 -39c49 -15 71 -25 97 -47c31 -27 51 -68 51 -107c0 -58 -35 -123 -85 -159c-36 -25 -87 -40 -135 -40h-322l6 22h15c35 3 53 21 65 66l131 491c1 6 2 12 2 18c0 26 -17 42 -43 43h-28z
M308 331l-78 -292c19 -4 28 -5 43 -5c52 0 94 21 122 63c23 32 38 83 38 125c0 43 -21 82 -52 97c-16 9 -35 12 -73 12zM386 627l-69 -262c49 0 76 6 103 25c41 28 68 88 68 149s-31 88 -102 88z" />
    <glyph glyph-name="afii10020" unicode="&#x413;" horiz-adv-x="604" 
d="M325 0h-273l6 22h8c35 3 52 21 64 66l131 491c2 5 2 10 2 17c0 26 -16 43 -43 44h-21l5 22h468l-44 -163h-20c-11 86 -60 126 -156 125h-46l-144 -541c-2 -7 -2 -10 -2 -19c0 -25 17 -41 43 -42h28z" />
    <glyph glyph-name="afii10021" unicode="&#x414;" horiz-adv-x="683" 
d="M213 662h505l-6 -22h-12c-35 -3 -52 -21 -65 -66l-133 -502c-4 -13 -4 -13 -4 -17c0 -15 8 -20 30 -20h59l-54 -204h-25c1 10 1 19 1 23c0 102 -48 146 -160 146h-153c-112 2 -181 -44 -256 -169h-25l55 204h21c59 0 104 34 150 114c46 78 82 172 115 299
c17 68 25 110 25 139c0 38 -17 53 -60 53h-14zM359 37l156 587h-175c-51 -278 -140 -510 -224 -587h243z" />
    <glyph glyph-name="afii10022" unicode="&#x415;" horiz-adv-x="667" 
d="M319 331l-60 -224c-3 -13 -5 -24 -5 -33c0 -24 22 -39 57 -39c79 0 171 47 254 131h18l-62 -166h-477l6 22h6c35 3 53 21 65 66l131 491c1 6 2 11 2 17c0 27 -16 43 -43 44h-25l6 22h475l-41 -154h-18c-6 75 -69 120 -161 117h-50l-69 -258h42c71 -1 121 31 150 96h21
l-61 -230h-21c3 24 3 26 3 33c0 42 -29 65 -81 65h-62z" />
    <glyph glyph-name="afii10024" unicode="&#x416;" horiz-adv-x="918" 
d="M572 314h-18l-55 -205c-6 -25 -9 -38 -9 -46c0 -28 18 -41 56 -41h16l-6 -22h-260l6 22c40 1 59 18 72 66l60 226h-9l-213 -236c-13 -14 -18 -24 -18 -34c0 -17 7 -21 33 -22l-6 -22h-268l7 22c35 5 66 22 95 53l304 331c-19 30 -30 47 -51 84c-68 119 -98 148 -158 150
h-11l5 22h241l-6 -22h-7c-35 0 -59 -22 -59 -53c0 -41 44 -126 121 -234h10l57 213c5 17 6 25 6 33c0 27 -18 41 -50 41h-15l6 22h258l-6 -22c-42 1 -64 -17 -77 -66l-56 -209h11c154 108 237 192 237 241c0 21 -12 34 -30 34h-11l5 22h226l-6 -22c-61 -7 -75 -17 -185 -120
c-46 -44 -73 -69 -137 -125l95 -272c23 -78 41 -100 82 -101l-5 -22h-247l5 22c31 0 48 11 48 33c0 11 -2 22 -6 35z" />
    <glyph glyph-name="afii10025" unicode="&#x417;" horiz-adv-x="509" 
d="M195 342l8 37c56 0 83 7 113 27c41 29 64 81 64 146c0 58 -21 86 -63 86c-56 0 -108 -45 -159 -138h-19l42 175h20c3 -15 10 -20 25 -20c9 0 9 0 36 8c25 7 59 12 86 12c100 0 165 -56 165 -141c0 -55 -25 -106 -68 -137c-28 -21 -53 -30 -108 -38c45 -10 62 -17 81 -33
c29 -24 45 -62 45 -108c0 -129 -112 -231 -256 -231c-68 0 -123 23 -165 68c-25 26 -37 48 -57 98l29 13c42 -83 92 -123 157 -123c88 0 156 83 156 191c0 72 -37 108 -112 108h-20z" />
    <glyph glyph-name="afii10026" unicode="&#x418;" horiz-adv-x="778" 
d="M263 186l337 390c2 10 3 14 3 20c0 27 -16 43 -43 44h-21l5 22h271l-6 -22h-12c-35 -3 -52 -21 -64 -66l-131 -491c-2 -7 -3 -14 -3 -19c0 -25 17 -41 43 -42h29l-6 -22h-273l6 22h7c35 3 53 21 65 66l109 409l-340 -400l-4 -14c-2 -7 -2 -10 -2 -19c0 -25 17 -41 43 -42
h28l-6 -22h-273l6 22h8c34 3 52 21 64 66l131 491c2 6 2 10 2 18c0 26 -16 42 -43 43h-21l5 22h271l-6 -22h-12c-34 -3 -52 -21 -64 -66z" />
    <glyph glyph-name="afii10027" unicode="&#x419;" horiz-adv-x="778" 
d="M261 186l337 390c2 10 3 14 3 20c0 27 -16 43 -43 44h-21l5 22h271l-6 -22h-12c-35 -3 -52 -21 -64 -66l-131 -491c-2 -7 -3 -14 -3 -19c0 -25 17 -41 43 -42h29l-6 -22h-273l6 22h7c35 3 53 21 65 66l109 409l-340 -400l-4 -14c-2 -7 -2 -10 -2 -19c0 -25 17 -41 43 -42
h28l-6 -22h-273l6 22h8c34 3 52 21 64 66l131 491c2 6 2 10 2 18c0 26 -16 42 -43 43h-21l5 22h271l-6 -22h-12c-34 -3 -52 -21 -64 -66zM425 865c27 0 47 -16 47 -37c0 -7 -2 -15 -8 -28c-4 -10 -5 -13 -5 -17c0 -15 26 -28 57 -28c38 0 66 17 66 41c0 3 0 7 -1 11
c-1 5 -1 9 -1 11c0 26 26 47 58 47c30 0 48 -17 48 -46c0 -60 -72 -100 -178 -100c-92 0 -147 30 -147 81c0 36 28 65 64 65z" />
    <glyph glyph-name="afii10028" unicode="&#x41a;" horiz-adv-x="678" 
d="M312 353l-72 -270c-2 -7 -3 -13 -3 -19c0 -25 17 -42 43 -42h31l-6 -22h-277l6 22h9c35 3 53 21 65 66l131 491c1 7 2 12 2 19c0 25 -17 42 -43 42h-31l6 22h289l-5 -22h-22c-35 -3 -52 -21 -65 -66l-57 -215l187 175c25 23 41 52 41 73c0 18 -13 33 -29 33h-12l6 22h223
l-6 -22c-46 -4 -86 -23 -141 -68l-165 -153l112 -328c22 -51 43 -71 74 -69l-6 -22h-255l6 22h12c23 0 39 16 39 40c0 9 -2 20 -6 32z" />
    <glyph glyph-name="afii10029" unicode="&#x41b;" horiz-adv-x="686" 
d="M512 624h-155l-52 -196c-97 -362 -141 -439 -253 -439c-54 0 -88 30 -88 77c0 38 25 64 61 64c37 0 53 -19 56 -67c1 -10 8 -16 17 -16c43 0 92 115 162 381l24 92c11 44 12 49 12 64c0 32 -26 56 -62 56h-14l7 22h487l-6 -22h-12c-34 -3 -52 -22 -64 -66l-131 -491
c-2 -6 -2 -10 -2 -18c0 -26 16 -42 43 -43h28l-6 -22h-273l6 22h8c34 3 52 21 64 66z" />
    <glyph glyph-name="afii10030" unicode="&#x41c;" horiz-adv-x="889" 
d="M418 184l328 478h197l-6 -22h-17c-35 -3 -53 -21 -65 -66l-131 -491c-1 -7 -2 -11 -2 -19c0 -25 17 -41 43 -42h29l-6 -22h-290l6 22h23c35 3 54 21 66 66l129 483l-388 -571h-17l-73 571l-121 -457c-4 -14 -6 -26 -6 -35c0 -32 24 -53 67 -57l-6 -22h-176l6 22
c37 5 63 37 78 97l130 490c-16 21 -27 25 -79 31l5 22h216z" />
    <glyph glyph-name="afii10031" unicode="&#x41d;" horiz-adv-x="778" 
d="M297 321l-63 -238c-2 -7 -2 -10 -2 -19c0 -25 17 -41 43 -42h28l-6 -22h-273l6 22h8c34 3 52 21 64 66l131 491c2 6 2 10 2 18c0 26 -16 42 -43 43h-21l5 22h297l-5 -22h-39c-34 -3 -52 -21 -64 -66l-57 -212h230l58 217c2 6 2 10 2 18c0 26 -16 42 -43 43h-26l6 22h276
l-6 -22h-12c-35 -3 -52 -21 -65 -66l-130 -491c-2 -6 -3 -13 -3 -18c0 -26 16 -42 43 -43h25l-6 -22h-298l6 22h36c34 3 52 21 64 66l62 233h-230z" />
    <glyph glyph-name="afii10032" unicode="&#x41e;" horiz-adv-x="722" 
d="M474 669c140 0 225 -87 225 -228c0 -236 -194 -450 -408 -450c-66 0 -125 22 -160 60c-38 42 -60 103 -60 166c0 131 65 273 167 361c64 56 156 91 236 91zM462 629c-57 0 -108 -34 -146 -97c-55 -93 -103 -266 -103 -376c0 -75 38 -126 94 -126c49 0 101 31 133 79
c62 96 116 278 116 395c0 76 -37 125 -94 125z" />
    </font>
</defs>
</svg>
